wXw 2018 05 09 ENG Shotgun 353 720p WEB NCMP Watch / Download

wXw 2018 05 09 ENG Shotgun 353 720p WEB NCMP Watch / Download

 

 

 

 

 

 

 

 

 

dx-tv.com

 

 

 

 

 

 

Complete name :wXw.2018.05.09.ENG.Shotgun.353.720p.WEB.h264-NCMP.mp4
Format : MPEG-4
Format profile : Base Media
Codec ID : isom
File size : 690 MiB
Duration : 58mn 7s
Overall bit rate : 1 659 Kbps
Writing application : Lavf55.12.100

Video
ID : 2
Format : AVC
Format/Info : Advanced Video Codec
Codec ID/Info : Advanced Video Coding
Duration : 58mn 7s
Bit rate mode : Variable
Bit rate : 1 518 Kbps
Width : 1 280 pixels
Height : 720 pixels
Display aspect ratio : 16:9
Frame rate mode : Constant
Frame rate : 50.000 fps
Color space : YUV
Chroma subsampling : 4:2:0
Bit depth : 8 bits
Scan type : Progressive
Bits/(Pixel*Frame) : 0.033
Stream size : 631 MiB (92%)

Audio
ID : 1
Format : AAC
Format/Info : Advanced Audio Codec
Format profile : LC
Codec ID : 40
Duration : 58mn 7s
Bit rate mode : Constant
Bit rate : 128 Kbps
Channel(s) : 2 channels
Channel positions : Front: L R
Sampling rate : 44.1 KHz
Compression mode : Lossy
Stream size : 53.2 MiB (8%)

 

 

 

 

 

 

 

 

 

 

 

 

 

 

 

 

 

wXw 2018 05 09 ENG Shotgun 353 720p WEB NCMP Watch / Download

 

 

 

 

Watch online

 

 

Waiting finish converting video

 

 

Server 1

 

 

 

 

 

 

 

 

 

 

 

 

 

 

Server 2

 

 

 

 

 


 

 

 

 

Uploaded By Site DX-TV.com

 

 

 

open rar file to see this password

 

 

 

 

The password is : DX-TV.com

 

 

 

 

 

Uploaded.net + rapidgator.net

 

 

 

 

 

http://shrt10.com/z85U1dE

 

 

 

 

 

 

http://shrt10.com/U0MC

 

 

 

 

 

 

 

 

wXw 2018 05 09 ENG Shotgun 353 720p WEB NCMP Watch / Download

2 comments

Comments are closed.