WWE Vintage Collection 2018 06 17 HDTV Ebi Watch /Download

WWE Vintage Collection 2018 06 17 HDTV Ebi Watch /Download

 

 

 

 

 

 

dx-tv

 

 

 

 

Complete name : WWE.Vintage.Collection.2018.06.17.HDTV.x264-Ebi.mp4
Format : MPEG-4
Format profile : Base Media / Version 2
Codec ID : mp42
File size : 451 MiB
Duration : 43mn 19s
Overall bit rate : 1 455 Kbps
Encoded date : UTC 2018-06-14 02:27:58
Tagged date : UTC 2018-06-14 02:27:58

Video
ID : 1
Format : AVC
Format/Info : Advanced Video Codec
Codec ID : avc1
Codec ID/Info : Advanced Video Coding
Duration : 43mn 19s
Bit rate mode : Variable
Bit rate : 1 300 Kbps
Width : 712 pixels
Height : 400 pixels
Display aspect ratio : 16:9
Frame rate mode : Constant
Frame rate : 29.970 fps
Color space : YUV
Chroma subsampling : 4:2:0
Bit depth : 8 bits
Scan type : Progressive
Bits/(Pixel*Frame) : 0.152
Stream size : 399 MiB (88%)

Audio
ID : 2
Format : AAC
Format/Info : Advanced Audio Codec
Format profile : LC
Codec ID : 40
Duration : 43mn 19s
Bit rate mode : Variable
Bit rate : 160 Kbps
Channel(s) : 2 channels
Channel positions : Front: L R
Sampling rate : 48.0 KHz
Compression mode : Lossy
Stream size : 49.7 MiB (11%)
Title : Stereo
Encoded date : UTC 2018-06-14 02:27:58
Tagged date : UTC 2018-06-14 02:27:58

 

 

 

 

 

 

 

 

WWE Vintage Collection 2018 06 17 HDTV Ebi Watch /Download

 

 

 

 

Watch online

 

 

Waiting finish converting video

 

 

Server 1

 

 

 

 

 

 

 

 

 

 

 

 

 

 

 

 

 

Server 2

 

 

 

 

 

 

 

 

 


 

 

 

 

 

 

 

Uploaded By Site DX-TV.com

 

 

 

open rar file to see this password

 

 

 

 

The password is : DX-TV.com

 

 

 

 

Uploaded.net + rapidgator.net

 

 

 

 

 

 

 

 
http://shrt10.com/MSF1

 
http://shrt10.com/J8EgE6H7
 

 

 

 

 

 

 

 

WWE Vintage Collection 2018 06 17 HDTV Ebi Watch /Download