WWE United Kingdom Championship Tournament 2018 Night Two WEB HEEL Watch / Download

WWE United Kingdom Championship Tournament 2018 Night Two WEB HEEL Watch / Download

 

 

 


 

 

dx-tv.com

 

 

 

 

Complete name : WWE.United.Kingdom.Championship.Tournament.2018.Night.Two.WEB.h264-HEEL.mp4
Format : MPEG-4
Format profile : Base Media
Codec ID : isom
File size : 1.85 GiB
Duration : 2h 27mn
Overall bit rate : 1 805 Kbps

Video
ID : 1
Format : AVC
Format/Info : Advanced Video Codec
Codec ID/Info : Advanced Video Coding
Duration : 2h 27mn
Bit rate mode : Constant
Bit rate : 1 704 Kbps
Width : 896 pixels
Height : 504 pixels
Display aspect ratio : 16:9
Frame rate mode : Variable
Frame rate : 29.970 fps
Minimum frame rate : 24.187 fps
Maximum frame rate : 29.970 fps
Color space : YUV
Chroma subsampling : 4:2:0
Bit depth : 8 bits
Scan type : Progressive
Bits/(Pixel*Frame) : 0.126
Stream size : 1.75 GiB (94%)

Audio
ID : 2
Format : AAC
Format/Info : Advanced Audio Codec
Format profile : LC
Codec ID : 40
Duration : 2h 27mn
Bit rate mode : Constant
Bit rate : 93.5 Kbps
Channel(s) : 2 channels
Channel positions : Front: L R
Sampling rate : 48.0 KHz
Compression mode : Lossy
Stream size : 98.3 MiB (5%)
Language : English

 

 

 

WWE United Kingdom Championship Tournament 2018 Night Two WEB HEEL Watch / Download

 

Watch online

 

 

Waiting finish converting video

 

 

Server 1

 

 

 

 

 

 

 

 

 

 

 

 

 

 

 

Server 2

 

 

 

 

 

 

 


 

 

 

 

Uploaded By Site DX-TV.com

 

 

 

open rar file to see this password

 

 

 

 

The password : DX-TV.com

 

 

 

 

 

Uploaded.net + rapidgator.net

 

 

 

 

 

http://shrt10.com/rYM4i

 
http://shrt10.com/vGWg
 

 

 

 

 

WWE United Kingdom Championship Tournament 2018 Night Two WEB HEEL Watch / Download

Support HVIPS

Please Disable Ad-Block To View This site. just help us to continue this work