WWE United Kingdom Championship Tournament 2018 Night One 720p WEB HEEL Watch / Download

WWE United Kingdom Championship Tournament 2018 Night One 720p WEB HEEL Watch / Download

 

 

 

 


 

dx-tv.com

 

 

 

 

 

 

 

Complete name : WWE.United.Kingdom.Championship.Tournament.2018.Night.One.720p.WEB.h264-HEEL.mp4
Format : MPEG-4
Format profile : Base Media
Codec ID : isom
File size : 5.03 GiB
Duration : 2h 39mn
Overall bit rate : 4 507 Kbps

Video
ID : 1
Format : AVC
Format/Info : Advanced Video Codec
Codec ID/Info : Advanced Video Coding
Duration : 2h 39mn
Bit rate mode : Constant
Bit rate : 4 372 Kbps
Width : 1 280 pixels
Height : 720 pixels
Display aspect ratio : 16:9
Frame rate mode : Variable
Frame rate : 29.970 fps
Minimum frame rate : 26.308 fps
Maximum frame rate : 29.970 fps
Color space : YUV
Chroma subsampling : 4:2:0
Bit depth : 8 bits
Scan type : Progressive
Bits/(Pixel*Frame) : 0.158
Stream size : 4.88 GiB (97%)

Audio
ID : 2
Format : AAC
Format/Info : Advanced Audio Codec
Format profile : LC
Codec ID : 40
Duration : 2h 39mn
Bit rate mode : Constant
Bit rate : 125 Kbps
Channel(s) : 2 channels
Channel positions : Front: L R
Sampling rate : 48.0 KHz
Compression mode : Lossy
Stream size : 143 MiB (3%)
Language : English

 

 

 

 

WWE United Kingdom Championship Tournament 2018 Night One 720p WEB HEEL Watch / Download

 

 

 

 

Watch online

 

 

Waiting finish converting video

 

 

Server 1

 

 

 

 

 

 

 

 

 

 

 

 

 

 

 

Server 2

 

 

 

 

 

 

 

 

 

 

 

 

 

Uploaded By Site DX-TV.com

 

 

 

open rar file to see this password

 

 

 

 

The password : DX-TV.com

 

 

 

 

 

Uploaded.net + rapidgator.net

 

 

 

 

 

 

http://shrt10.com/Yua3

 

http://shrt10.com/lgD84

 

 

http://shrt10.com/vY5tu8

 
http://shrt10.com/TWGyO
 

 

 

 

 

 

 

WWE United Kingdom Championship Tournament 2018 Night One 720p WEB HEEL Watch / Download