WWE Something Else To Wrestle S01E12 Rise of The Rock 720p WEB HEEL Watch / Download

WWE Something Else To Wrestle S01E12 Rise of The Rock 720p WEB HEEL Watch / Download

 

 

 

 


 

dx-tv.com

 

 

 

 

 

 

 

 

 

 

 

 
Complete name : WWE.Something.Else.To.Wrestle.S01E12.Rise.of.The.Rock.720p.WEB.h264-HEEL.mp4
Format : MPEG-4
Format profile : Base Media
Codec ID : isom
File size : 2.03 GiB
Duration : 1h 4mn
Overall bit rate : 4 501 Kbps

Video
ID : 1
Format : AVC
Format/Info : Advanced Video Codec
Codec ID : avc1
Codec ID/Info : Advanced Video Coding
Duration : 1h 4mn
Bit rate mode : Variable
Bit rate : 4 399 Kbps
Maximum bit rate : 5 500 Kbps
Width : 1 280 pixels
Height : 720 pixels
Display aspect ratio : 16:9
Frame rate mode : Constant
Frame rate : 29.970 fps
Color space : YUV
Chroma subsampling : 4:2:0
Bit depth : 8 bits
Scan type : Progressive
Bits/(Pixel*Frame) : 0.159
Stream size : 1.99 GiB (98%)

Audio
ID : 2
Format : AAC
Format/Info : Advanced Audio Codec
Format profile : LC
Codec ID : 40
Duration : 1h 4mn
Bit rate mode : Variable
Bit rate : 93.5 Kbps
Maximum bit rate : 96.0 Kbps
Channel(s) : 2 channels
Channel positions : Front: L R
Sampling rate : 48.0 KHz
Compression mode : Lossy
Stream size : 43.3 MiB (2%)

 

 

 

 

 

WWE Something Else To Wrestle S01E12 Rise of The Rock 720p WEB HEEL Watch / Download

 

 

 

 

Watch online

 

 

Waiting finish converting video

 

 

Server 1

 

 

 

 

 

 

 

 

 

 

 

 

 

 

 

Server 2

 

 

 

 

 

 

 

 

 

 

Uploaded By Site DX-TV.com

 

 

 

open rar file to see this password

 

 

 

 

The password : DX-TV.com

 

 

 

 

 

Uploaded.net + rapidgator.net

 

 

 

 

 

 
http://shrt10.com/ZJ94Cz1

http://shrt10.com/kU3M9Q
 

 

 

 

 

 

 

 

 

 

 

WWE Something Else To Wrestle S01E12 Rise of The Rock 720p WEB HEEL Watch / Download