WWE Something Else To Wrestle S01E11 Big Evil WEB HEEL /720p Watch / Download

WWE Something Else To Wrestle S01E11 Big Evil WEB HEEL /720p Watch / Download

 

 

 

 


 

 

dx-tv.com

 

 

 

 

 

 

 
Complete name : WWE.Something.Else.To.Wrestle.S01E11.Big.Evil.WEB.h264-HEEL.mp4
Format : MPEG-4
Format profile : Base Media
Codec ID : isom
File size : 912 MiB
Duration : 1h 11mn
Overall bit rate : 1 773 Kbps

Video
ID : 1
Format : AVC
Format/Info : Advanced Video Codec
Codec ID : avc1
Codec ID/Info : Advanced Video Coding
Duration : 1h 11mn
Bit rate mode : Variable
Bit rate : 1 673 Kbps
Maximum bit rate : 2 125 Kbps
Width : 960 pixels
Height : 540 pixels
Display aspect ratio : 16:9
Frame rate mode : Constant
Frame rate : 29.970 fps
Color space : YUV
Chroma subsampling : 4:2:0
Bit depth : 8 bits
Scan type : Progressive
Bits/(Pixel*Frame) : 0.108
Stream size : 860 MiB (94%)

Audio
ID : 2
Format : AAC
Format/Info : Advanced Audio Codec
Format profile : LC
Codec ID : 40
Duration : 1h 11mn
Bit rate mode : Variable
Bit rate : 93.5 Kbps
Maximum bit rate : 96.0 Kbps
Channel(s) : 2 channels
Channel positions : Front: L R
Sampling rate : 48.0 KHz
Compression mode : Lossy
Stream size : 48.1 MiB (5%)

 

 

 

 

 
Complete name : WWE.Something.Else.To.Wrestle.S01E11.Big.Evil.720p.WEB.h264-HEEL.mp4
Format : MPEG-4
Format profile : Base Media
Codec ID : isom
File size : 2.25 GiB
Duration : 1h 11mn
Overall bit rate : 4 487 Kbps

Video
ID : 1
Format : AVC
Format/Info : Advanced Video Codec
Codec ID/Info : Advanced Video Coding
Duration : 1h 11mn
Bit rate mode : Variable
Bit rate : 4 385 Kbps
Maximum bit rate : 5 500 Kbps
Width : 1 280 pixels
Height : 720 pixels
Display aspect ratio : 16:9
Frame rate mode : Constant
Frame rate : 29.970 fps
Color space : YUV
Chroma subsampling : 4:2:0
Bit depth : 8 bits
Scan type : Progressive
Bits/(Pixel*Frame) : 0.159
Stream size : 2.20 GiB (98%)

Audio
ID : 2
Format : AAC
Format/Info : Advanced Audio Codec
Format profile : LC
Codec ID : 40
Duration : 1h 11mn
Bit rate mode : Variable
Bit rate : 93.5 Kbps
Maximum bit rate : 96.0 Kbps
Channel(s) : 2 channels
Channel positions : Front: L R
Sampling rate : 48.0 KHz
Compression mode : Lossy
Stream size : 48.1 MiB (2%)

 

 

 

 

 

WWE Something Else To Wrestle S01E11 Big Evil WEB HEEL /720p Watch / Download

 

 

 

 

Watch online

 

 

Waiting finish converting video

 

 

Server 1

 

 

 

 

 

 

 

 

 

 

 

 

 

 

Server 2

 

 

 

 


 

 

 

 

Uploaded By Site DX-TV.com

 

 

 

open rar file to see this password

 

 

 

 

The password : DX-TV.com

 

 

 

 

400p+720p

 

 

 

 

 

Uploaded.net + rapidgator.net

 

 

 

 

 

 
http://shrt10.com/hvLGGmF
 

http://shrt10.com/xgdJRG
 

http://shrt10.com/vB5kdK3

 
http://shrt10.com/zF7yyFX
 

 

 

 

 

 

 

WWE Something Else To Wrestle S01E11 Big Evil WEB HEEL /720p Watch / Download

Support HVIPS

Please Disable Ad-Block To View This site. just help us to continue this work