WWE Smackdown Live 2018 08 14 720p HDTV Star

WWE Smackdown Live 2018 08 14 720p HDTV Star

 

 

 


 

dx-tv.com

 

 

 

 

 

 
Complete name : WWE.Smackdown.Live.2018.08.14.720p.HDTV.x264-Star.mp4
Format : MPEG-4
Format profile : Base Media / Version 2
File size : 2.85 GiB
Duration : 1 h 26 min
Overall bit rate mode : Variable
Overall bit rate : 4 709 kb/s
Encoded date : UTC 2018-08-15 02:40:39
Tagged date : UTC 2018-08-15 02:40:39

Video
ID : 1
Format : AVC
Format/Info : Advanced Video Codec
Codec ID : avc1
Codec ID/Info : Advanced Video Coding
Duration : 1 h 26 min
Bit rate : 4 500 kb/s
Width : 1 280 pixels
Height : 720 pixels
Display aspect ratio : 16:9
Frame rate mode : Constant
Frame rate : 29.970 (30000/1001) FPS
Color space : YUV
Chroma subsampling : 4:2:0
Bit depth : 8 bits
Scan type : Progressive
Bits/(Pixel*Frame) : 0.163
Stream size : 2.73 GiB (96%)
Writing library : x264 core 155 r2901 7d0ff22
Encoded date : UTC 2018-08-15 02:40:39
Tagged date : UTC 2018-08-15 02:40:39
Color range : Limited
Color primaries : BT.709
Transfer characteristics : BT.709
Matrix coefficients : BT.709

Audio
ID : 2
Format : AAC
Format/Info : Advanced Audio Codec
Format profile : LC
Codec ID : mp4a-40-2
Duration : 1 h 26 min
Bit rate mode : Variable
Bit rate : 192 kb/s
Channel(s) : 2 channels
Channel positions : Front: L R
Sampling rate : 48.0 kHz
Frame rate : 46.875 FPS (1024 SPF)
Compression mode : Lossy
Stream size : 119 MiB (4%)
Title : Stereo / Stereo
Default : Yes
Alternate group : 1
Encoded date : UTC 2018-08-15 02:40:39
Tagged date : UTC 2018-08-15 02:40:39

 

 

 

 

 

 

 

WWE Smackdown Live 2018 08 14 720p HDTV Star

 

 

 

 

Uploaded By Site DX-TV.com

 

 

 

open rar file to see this password

 

 

 

 

The password : DX-TV.com

 

 

 

 

Uploaded.net + rapidgator.net

 

 

 

 

 

 

 
http://shrt10.com/qL7oNhG

 
http://shrt10.com/9enfkbot
 

 

 

 

 

 

 

 

WWE Smackdown Live 2018 08 14 720p HDTV Star