WWE Smackdown Live 2018 07 10 720p HDTV Ebi mp4 Download

WWE Smackdown Live 2018 07 10 720p HDTV Ebi mp4 Download

 

 

 

 


 

 

 

dx-tv.com

 

 

 

 

 

 

Complete name : WWE.SmackDown.2018.07.10.720p.WEB.h264-HEEL.mp4
Format : MPEG-4
Format profile : Base Media
Codec ID : isom
File size : 3.08 GiB
Duration : 1h 30mn
Overall bit rate : 4 867 Kbps

Video
ID : 1
Format : AVC
Format/Info : Advanced Video Codec
Codec ID : avc1
Codec ID/Info : Advanced Video Coding
Duration : 1h 30mn
Bit rate mode : Constant
Bit rate : 4 700 Kbps
Width : 1 280 pixels
Height : 720 pixels
Display aspect ratio : 16:9
Frame rate mode : Variable
Frame rate : 59.940 fps
Minimum frame rate : 27.916 fps
Maximum frame rate : 60.606 fps
Color space : YUV
Chroma subsampling : 4:2:0
Bit depth : 8 bits
Scan type : Progressive
Bits/(Pixel*Frame) : 0.085
Stream size : 2.99 GiB (97%)

Audio
ID : 2
Format : AAC
Format/Info : Advanced Audio Codec
Format profile : LC
Codec ID : 40
Duration : 1h 30mn
Bit rate mode : Variable
Bit rate : 126 Kbps
Maximum bit rate : 126 Kbps
Channel(s) : 2 channels
Channel positions : Front: L R
Sampling rate : 44.1 KHz
Compression mode : Lossy
Stream size : 81.6 MiB (3%)

 

 

 

 

 

 

 

WWE Smackdown Live 2018 07 10 720p HDTV Ebi mp4 Download

 

 

 

 

 

Uploaded By Site DX-TV.com

 

 

 

open rar file to see this password

 

 

 

 

The password : DX-TV.com

 

 

 

 

Uploaded.net + rapidgator.net

 

 

 

 

 

 

http://shrt10.com/JsMWZ

http://shrt10.com/NELt
 

 

 

 

 

 

WWE Smackdown Live 2018 07 10 720p HDTV Ebi mp4 Download