WWE Smackdown Live 2018 05 08 HDTV Ebi Watch / Download

WWE Smackdown Live 2018 05 08 HDTV Ebi Watch / Download

 

 

 

 

 

 

 

 

 

dx-tv.com

 

 

 

 

 

 
Complete name : WWE.Smackdown.Live.2018.05.08.HDTV.x264-Ebi.mp4
Format : MPEG-4
Format profile : Base Media / Version 2
Codec ID : mp42
File size : 909 MiB
Duration : 1h 26mn
Overall bit rate : 1 464 Kbps
Encoded date : UTC 2018-05-09 02:17:20
Tagged date : UTC 2018-05-09 02:17:20

Video
ID : 1
Format : AVC
Format/Info : Advanced Video Codec
Codec ID : avc1
Codec ID/Info : Advanced Video Coding
Duration : 1h 26mn
Bit rate mode : Variable
Bit rate : 1 300 Kbps
Width : 712 pixels
Height : 400 pixels
Display aspect ratio : 16:9
Frame rate mode : Constant
Frame rate : 29.970 fps
Color space : YUV
Chroma subsampling : 4:2:0
Bit depth : 8 bits
Scan type : Progressive
Bits/(Pixel*Frame) : 0.152
Stream size : 806 MiB (89%)
Audio
ID : 2
Format : AAC
Format/Info : Advanced Audio Codec
Format profile : LC
Codec ID : 40
Duration : 1h 26mn
Bit rate mode : Variable
Bit rate : 160 Kbps
Channel(s) : 2 channels
Channel positions : Front: L R
Sampling rate : 48.0 KHz
Compression mode : Lossy
Stream size : 99.1 MiB (11%)
Title : Stereo
Encoded date : UTC 2018-05-09 02:17:20
Tagged date : UTC 2018-05-09 02:17:20

 

 

 

 

 

 

 

WWE Smackdown Live 2018 05 08 HDTV Ebi Watch / Download

 

 

 

 

Watch online

 

 

Waiting finish converting video

 

 

Server 1

 

 

 

 

 

 

 

 

 

 

 

 

 

 

 

Server 2

 

 

 

 

 

 


 

 

 

 

 

Uploaded By Site DX-TV.com

 

 

 

open rar file to see this password

 

 

 

 

The password is : DX-TV.com

 

 

 

 

 

 

 

Uploaded.net + rapidgator.net

 

 

 

 

 

http://shrt10.com/FFMhZj1C

 

 

 

 

 

 

http://shrt10.com/cFCehno

 

 

 

 

 

 

 

 

 

WWE Smackdown Live 2018 05 08 HDTV Ebi Watch / Download

Leave a Reply

Support HVIPS

Please Disable Ad-Block To View This site. just help us to continue this work