WWE Smackdown Live 2018 04 24 1080p HDTV Ebi

WWE Smackdown Live 2018 04 24 1080p HDTV Ebi

 

 

 

 

 

 

 

 

 

dx-tv.com

 

 

 

 

 

 

 

Complete name : WWE.Smackdown.Live.2018.04.24.1080p.HDTV.x264-Ebi.mp4
Format : MPEG-4
Format profile : Base Media / Version 2
Codec ID : mp42
File size : 5.30 GiB
Duration : 1h 26mn
Overall bit rate : 8 742 Kbps
Encoded date : UTC 2018-04-25 04:42:09
Tagged date : UTC 2018-04-25 04:42:09

Video
ID : 1
Format : AVC
Format/Info : Advanced Video Codec
Codec ID : avc1
Codec ID/Info : Advanced Video Coding
Duration : 1h 26mn
Bit rate mode : Variable
Bit rate : 8 500 Kbps
Width : 1 920 pixels
Height : 1 080 pixels
Display aspect ratio : 16:9
Frame rate mode : Constant
Frame rate : 29.970 fps
Color space : YUV
Chroma subsampling : 4:2:0
Bit depth : 8 bits
Scan type : Progressive
Bits/(Pixel*Frame) : 0.137
Stream size : 5.16 GiB (97%)

Audio
ID : 2
Format : AAC
Format/Info : Advanced Audio Codec
Format profile : LC
Codec ID : 40
Duration : 1h 26mn
Bit rate mode : Variable
Bit rate : 223 Kbps
Channel(s) : 2 channels
Channel positions : Front: L R
Sampling rate : 48.0 KHz
Compression mode : Lossy
Stream size : 138 MiB (3%)
Title : Stereo
Encoded date : UTC 2018-04-25 04:42:09
Tagged date : UTC 2018-04-25 04:42:09

 

 

 

 

 

WWE Smackdown Live 2018 04 24 1080p HDTV Ebi

 

 

 

 

Uploaded By Site DX-TV.com

 

 

 

open rar file to see this password

 

 

 

 

The password is : DX-TV.com

 

 

 

 

1080p

 

 

 

 

 

Uploaded.net + rapidgator.net

 

 

 

 

 

http://shrt10.com/bgAVjuE

 

 

http://shrt10.com/LXotgu

 

 

http://shrt10.com/8SzNN

 

 

http://shrt10.com/JdPt7h

 

 

 

 

 

 

 

WWE Smackdown Live 2018 04 24 1080p HDTV Ebi

Leave a Reply

Support HVIPS

Please Disable Ad-Block To View This site. just help us to continue this work