WWE Smackdown Live 2018 04 10 HDTV Ebi /720p Watch / Download

WWE Smackdown Live 2018 04 10 HDTV Ebi /720p Watch / Download

 

 

 

 

 

wwe

 

 

 

 

 

 

Complete name : WWE.Smackdown.Live.2018.04.10.HDTV.x264-Ebi.mp4
Format : MPEG-4
Format profile : Base Media / Version 2
Codec ID : mp42
File size : 912 MiB
Duration : 1h 26mn
Overall bit rate : 1 470 Kbps
Encoded date : UTC 2018-04-11 02:13:37
Tagged date : UTC 2018-04-11 02:13:37

Video
ID : 1
Format : AVC
Format/Info : Advanced Video Codec
Codec ID/Info : Advanced Video Coding
Duration : 1h 26mn
Bit rate mode : Variable
Bit rate : 1 300 Kbps
Width : 712 pixels
Height : 400 pixels
Display aspect ratio : 16:9
Frame rate mode : Constant
Frame rate : 29.970 fps
Color space : YUV
Chroma subsampling : 4:2:0
Bit depth : 8 bits
Scan type : Progressive
Bits/(Pixel*Frame) : 0.152
Stream size : 809 MiB (89%)

Audio
ID : 2
Format : AAC
Format/Info : Advanced Audio Codec
Format profile : LC
Codec ID : 40
Duration : 1h 26mn
Bit rate mode : Variable
Bit rate : 160 Kbps
Channel(s) : 2 channels
Channel positions : Front: L R
Sampling rate : 48.0 KHz
Compression mode : Lossy
Stream size : 99.1 MiB (11%)
Title : Stereo
Encoded date : UTC 2018-04-11 02:13:37
Tagged date : UTC 2018-04-11 02:13:37

 

 

 

 

 

 WWE.Smackdown.Live.2018.04.10.720p.HDTV.x264-Ebi
Release Info:
Show Name: WWE Smackdown
Genre: Wrestling
Release Date: 2018-04-11(UK)
Air Date: 2018-04-10(US)
Source : HDTV
Container: MP4
Video: x264, 1467Kbps, 29,970fps, 1280×720, 16:9
Audio: AAC, 192Kbps, 48KHz, 2ch
Size: 910 GB
Runtime: 1h 26mn

 

 

 

 

 

 

 

WWE Smackdown Live 2018 04 10 HDTV Ebi /720p Watch / Download

 

 

 

 

Watch online

 

 

Waiting finish converting video

 

 

Server 1

 

 

 

 

 

 

 

 

 

 

 

 

 

Server 2

 

 

 

 


 

 

 

Uploaded By Site DX-TV.com

 

 

 

open rar file to see this password

 

 

 

 

The password is : DX-TV.com

 

 

 

 

400p+720p

 

 

 

 

 

Uploaded.net + rapidgator.net

 

 

 

 

 

http://shrt10.com/MVZnxbsH

 

 

http://shrt10.com/tWddb

 

 

 

http://shrt10.com/QeQtka0s

 

 

 

http://shrt10.com/paTyMpaE

 

 

 

 

 

WWE Smackdown Live 2018 04 10 HDTV Ebi /720p Watch / Download

Support HVIPS

Please Disable Ad-Block To View This site. just help us to continue this work