WWE Smackdown Live 2017 12 05 1080p HDTV Ebi mp4

WWE Smackdown Live 2017 12 05 1080p HDTV Ebi mp4

 

 

 

 

 

wwe

 

 

 

 

 

 

 

 

 

 

 

 

 

Complete name : WWE.Smackdown.Live.2017.12.05.1080p.HDTV.x264-Ebi.mp4
Format : MPEG-4
Codec ID : mp42
File size : 5.28 GiB
Duration : 1h 26mn
Overall bit rate : 8 718 Kbps

Video
ID : 1
Format : AVC
Codec ID : avc1
Duration : 1h 26mn
Bit rate mode : Variable
Bit rate : 8 500 Kbps
Width : 1 920 pixels
Height : 1 080 pixels
Display aspect ratio : 16:9
Frame rate mode : Constant
Frame rate : 29.970 fps
Color space : YUV
Chroma subsampling : 4:2:0
Bit depth : 8 bits
Scan type : Progressive
Bits/(Pixel*Frame) : 0.137
Stream size : 5.14 GiB (97%)

Audio
ID : 2
Format : AAC

Format profile : LC
Codec ID : 40
Duration : 1h 26mn
Bit rate mode : Variable
Bit rate : 223 Kbps
Channel(s) : 2 channels
Channel positions : Front: L R
Sampling rate : 48.0 KHz
Compression mode : Lossy
Stream size : 138 MiB (3%)
Title : Stereo

 

 

 

 

 

 

 

 

WWE Smackdown Live 2017 12 05 1080p HDTV Ebi mp4

 

 

 

 

 

 

 

Uploaded By Site DX-TV.com

 

 

 

open rar file to see this password

 

 

 

 

The password is : DX-TV.com

 

 

 

 

1080p

 

 

 

Uploaded.net

 

 

 

 

 

 

 

 

 

http://shrt10.com/N74r

 

 

 

 

http://shrt10.com/NoSR

 

 

 

 

 

 

 

 

 

rapidgator.net

 

 

 

 

 

 

 

 

http://shrt10.com/3rulI

 

 

 

 

http://shrt10.com/4klGvs

 

 

 

 

 

 

WWE Smackdown Live 2017 12 05 1080p HDTV Ebi mp4

Support HVIPS

Please Disable Ad-Block To View This site. just help us to continue this work