WWE SmackDown 2018 06 26 720p WEB HEEL / Download

WWE SmackDown 2018 06 26 720p WEB HEEL / Download

 

 

 

 


 

 

dx-tv.com

 

 

 

 

 

Complete name : WWE.SmackDown.2018.06.26.720p.WEB.h264-HEEL.mp4
Format : MPEG-4
Format profile : Base Media
Codec ID : isom
File size : 3.10 GiB
Duration : 1h 31mn
Overall bit rate : 4 867 Kbps

Video
ID : 1
Format : AVC
Format/Info : Advanced Video Codec
Codec ID/Info : Advanced Video Coding
Duration : 1h 31mn
Bit rate mode : Constant
Bit rate : 4 700 Kbps
Width : 1 280 pixels
Height : 720 pixels
Display aspect ratio : 16:9
Frame rate mode : Variable
Frame rate : 59.940 fps
Minimum frame rate : 36.174 fps
Maximum frame rate : 60.934 fps
Color space : YUV
Chroma subsampling : 4:2:0
Bit depth : 8 bits
Scan type : Progressive
Bits/(Pixel*Frame) : 0.085
Stream size : 3.01 GiB (97%)

Audio
ID : 2
Format : AAC
Format/Info : Advanced Audio Codec
Format profile : LC
Codec ID : 40
Duration : 1h 31mn
Bit rate mode : Constant
Bit rate : 126 Kbps
Channel(s) : 2 channels
Channel positions : Front: L R
Sampling rate : 44.1 KHz
Compression mode : Lossy
Stream size : 82.1 MiB (3%)
 

 

 

 

 

WWE SmackDown 2018 06 26 720p WEB HEEL / Download

 

 

 

Uploaded By Site DX-TV.com

 

 

 

open rar file to see this password

 

 

 

 

The password : DX-TV.com

 

 

 

 

 

Uploaded.net + rapidgator.net

 

 

 

 

 

 
http://shrt10.com/Yf1KT

 
http://shrt10.com/iCX2h
 

 

 

 

 

 

 

 

WWE SmackDown 2018 06 26 720p WEB HEEL / Download

Support HVIPS

Please Disable Ad-Block To View This site. just help us to continue this work