WWE Ride Along S03E06 Little Big Adventure 720p WEB HEEL Watch / Download

WWE Ride Along S03E06 Little Big Adventure 720p WEB HEEL Watch / Download

 

 

 

 

 

 

 

 

 

dx-tv.com

 

 

 

 

 

 

Complete name : WWE.Ride.Along.S03E06.Little.Big.Adventure.720p.WEB.h264-HEEL.mp4
Format : MPEG-4
Format profile : Base Media
Codec ID : isom
File size : 697 MiB
Duration : 21mn 38s
Overall bit rate : 4 501 Kbps
Writing application : Lavf58.2.103

Video
ID : 1
Format : AVC
Format/Info : Advanced Video Codec
Codec ID : avc1
Codec ID/Info : Advanced Video Coding
Duration : 21mn 38s
Bit rate mode : Constant
Bit rate : 4 372 Kbps
Width : 1 280 pixels
Height : 720 pixels
Display aspect ratio : 16:9
Frame rate mode : Variable
Frame rate : 29.970 fps
Minimum frame rate : 20.266 fps
Maximum frame rate : 29.970 fps
Color space : YUV
Chroma subsampling : 4:2:0
Bit depth : 8 bits
Scan type : Progressive
Bits/(Pixel*Frame) : 0.158
Stream size : 676 MiB (97%)

Audio
ID : 2
Format : AAC
Format/Info : Advanced Audio Codec
Format profile : LC
Codec ID : 40
Duration : 21mn 38s
Bit rate mode : Variable
Bit rate : 125 Kbps
Maximum bit rate : 131 Kbps
Channel(s) : 2 channels
Channel positions : Front: L R
Sampling rate : 48.0 KHz
Compression mode : Lossy
Stream size : 19.4 MiB (3%)
Language : English

 

 

 

 

WWE Ride Along S03E06 Little Big Adventure 720p WEB HEEL Watch / Download

 

 

 

 

Watch online

 

 

Waiting finish converting video

 

 

Server 1

 

 

 

 

 

 

 

 

 

 

 

 

 

 

 

Server 2

 

 

 

 

 

 

 

 

 

 

 

 

 

 

Uploaded By Site DX-TV.com

 

 

 

open rar file to see this password

 

 

 

 

The password is : DX-TV.com

 

 

 

 

 

 

Uploaded.net + rapidgator.net

 

 

 

 

 

http://shrt10.com/5U82BDwU

 

 

 

 

 

 

http://shrt10.com/Mg4rgZb

 

 

 

 

 

 

 

 

 

WWE Ride Along S03E06 Little Big Adventure 720p WEB HEEL Watch / Download

Leave a Reply

Support HVIPS

Please Disable Ad-Block To View This site. just help us to continue this work