WWE RAW 2018 07 16 720p WEB HEEL Download

WWE RAW 2018 07 16 720p WEB HEEL Download

 

 

 

 


 

 

 

dx-tv.com

 

 

 

 

 

 
Complete name : WWE.RAW.2018.07.16.720p.WEB.h264-HEEL.mp4
Format : MPEG-4
Format profile : Base Media
Codec ID : isom
File size : 4.59 GiB
Duration : 2h 14mn
Overall bit rate : 4 872 Kbps

Video
ID : 1
Format : AVC
Format/Info : Advanced Video Codec
Codec ID : avc1
Codec ID/Info : Advanced Video Coding
Duration : 2h 14mn
Bit rate mode : Variable
Bit rate : 4 728 Kbps
Maximum bit rate : 4 700 Kbps
Width : 1 280 pixels
Height : 720 pixels
Display aspect ratio : 16:9
Frame rate mode : Variable
Frame rate : 59.940 fps
Minimum frame rate : 50.533 fps
Maximum frame rate : 61.392 fps
Color space : YUV
Chroma subsampling : 4:2:0
Bit depth : 8 bits
Scan type : Progressive
Bits/(Pixel*Frame) : 0.086
Stream size : 4.45 GiB (97%)

Audio
ID : 2
Format : AAC
Format/Info : Advanced Audio Codec
Format profile : LC
Codec ID : 40
Duration : 2h 14mn
Bit rate mode : Variable
Bit rate : 126 Kbps
Maximum bit rate : 127 Kbps
Channel(s) : 2 channels
Channel positions : Front: L R
Sampling rate : 44.1 KHz
Compression mode : Lossy
Stream size : 121 MiB (3%)

 

 

 

 

 

 

 

 

 

WWE RAW 2018 07 16 720p WEB HEEL Download

 

 

 

 

Uploaded By Site DX-TV.com

 

 

 

open rar file to see this password

 

 

 

 

The password : DX-TV.com

 

 

 

 

Uploaded.net + rapidgator.net

 

 

 

 

 

 

 
http://shrt10.com/Gc5Yi9jP

 

 

 
http://shrt10.com/3kDl
 

 

 

 

 

WWE RAW 2018 07 16 720p WEB HEEL Download