WWE RAW 2018 07 09 720p WEB HEEL mp4 Watch / Download

WWE RAW 2018 07 09 720p WEB HEEL mp4 Watch / Download

 

 

 

 


 

 

 

dx-tv.com

 

 

 

 

 

Complete name : WWE.RAW.2018.07.09.720p.WEB.h264-HEEL.mp4
Format : MPEG-4
Format profile : Base Media
Codec ID : isom
File size : 4.68 GiB
Duration : 2h 17mn
Overall bit rate : 4 869 Kbps

Video
ID : 1
Format : AVC
Format/Info : Advanced Video Codec
Codec ID : avc1
Codec ID/Info : Advanced Video Coding
Duration : 2h 17mn
Bit rate mode : Constant
Bit rate : 4 700 Kbps
Width : 1 280 pixels
Height : 720 pixels
Display aspect ratio : 16:9
Frame rate mode : Variable
Frame rate : 59.940 fps
Minimum frame rate : 25.489 fps
Maximum frame rate : 60.606 fps
Color space : YUV
Chroma subsampling : 4:2:0
Bit depth : 8 bits
Scan type : Progressive
Bits/(Pixel*Frame) : 0.085
Stream size : 4.55 GiB (97%)

Audio
ID : 2
Format : AAC
Format/Info : Advanced Audio Codec
Format profile : LC
Codec ID : 40
Duration : 2h 17mn
Bit rate mode : Constant
Bit rate : 126 Kbps
Channel(s) : 2 channels
Channel positions : Front: L R
Sampling rate : 44.1 KHz
Compression mode : Lossy
Stream size : 124 MiB (3%)

 

 

 

 

WWE RAW 2018 07 09 720p WEB HEEL mp4 Watch / Download

 

 

 

 

Watch online

 

 

Waiting finish converting video

 

 

Server 1

 

 

 

 

 

 

 

 

Coming now
 

 

 

 

Server 2

 

 

 

 

 

 

 

 

 

 

 

 

 

 

 

Uploaded By Site DX-TV.com

 

 

 

open rar file to see this password

 

 

 

 

The password : DX-TV.com

 

 

 

 

Uploaded.net + rapidgator.net

 

 

 

 

 

http://shrt10.com/qe0BynX

 

 

 

 

 
http://shrt10.com/jHycPZb
 

 

 

 

 

 

 

WWE RAW 2018 07 09 720p WEB HEEL mp4 Watch / Download