WWE RAW 2018 07 09 720p HDTV Ebi mp4 Download

WWE RAW 2018 07 09 720p HDTV Ebi mp4 Download

 

 

 

 


 

 

 

dx-tv.com

 

 

 

 

 

 

Complete name : WWE.RAW.2018.07.09.720p.HDTV.x264-Ebi.mp4
Format : MPEG-4
Format profile : Base Media / Version 2
Codec ID : mp42
File size : 4.61 GiB
Duration : 2h 20mn
Overall bit rate : 4 707 Kbps
Encoded date : UTC 2018-07-10 04:22:48
Tagged date : UTC 2018-07-10 04:22:48

Video
ID : 1
Format : AVC
Format/Info : Advanced Video Codec
Codec ID/Info : Advanced Video Coding
Duration : 2h 20mn
Bit rate mode : Variable
Bit rate : 4 500 Kbps
Width : 1 280 pixels
Height : 720 pixels
Display aspect ratio : 16:9
Frame rate mode : Constant
Frame rate : 29.970 fps
Color space : YUV
Chroma subsampling : 4:2:0
Bit depth : 8 bits
Scan type : Progressive
Bits/(Pixel*Frame) : 0.163
Stream size : 4.41 GiB (96%)

Audio
ID : 2
Format : AAC
Format/Info : Advanced Audio Codec
Format profile : LC
Codec ID : 40
Duration : 2h 20mn
Bit rate mode : Variable
Bit rate : 192 Kbps
Channel(s) : 2 channels
Channel positions : Front: L R
Sampling rate : 48.0 KHz
Compression mode : Lossy
Stream size : 192 MiB (4%)
Title : Stereo
Encoded date : UTC 2018-07-10 04:22:48
Tagged date : UTC 2018-07-10 04:22:48

 

 

 

 

 

 

 

WWE RAW 2018 07 09 720p HDTV Ebi mp4 Download

 

 

 

 

Uploaded By Site DX-TV.com

 

 

 

open rar file to see this password

 

 

 

 

The password : DX-TV.com

 

 

 

 

 

Uploaded.net + rapidgator.net

 

 

 

 

 

 

 

 
http://shrt10.com/cG0tk

 
http://shrt10.com/2E79A
 

 

 

 

 

 

 

 

 

WWE RAW 2018 07 09 720p HDTV Ebi mp4 Download

Support HVIPS

Please Disable Ad-Block To View This site. just help us to continue this work