WWE RAW 2018 06 04 WEB DL DX-TV Watch / Download

WWE RAW 2018 06 04 WEB DL DX-TV Watch / Download

 

 

 

 


 

 

dx-tv.com

 

 

 

 

 

 
Complete name : WWE.RAW.2018.06.04.WEB DL x264.DX-TV.mp4
Format : MPEG-4
Format profile : Base Media / Version 2
Codec ID : mp42
File size : 1.56 GiB
Duration : 2h 17mn
Overall bit rate : 1 634 Kbps
Encoded date : UTC 2018-06-05 06:56:10
Tagged date : UTC 2018-06-05 06:56:10

Video
ID : 1
Format : AVC
Format/Info : Advanced Video Codec
Duration : 2h 17mn
Bit rate mode : Variable
Bit rate : 1 499 Kbps
Width : 720 pixels
Height : 480 pixels
Display aspect ratio : 3:2
Frame rate mode : Constant
Frame rate : 30.000 fps
Standard : NTSC
Color space : YUV
Chroma subsampling : 4:2:0
Bit depth : 8 bits
Scan type : Progressive
Bits/(Pixel*Frame) : 0.145
Stream size : 1.44 GiB (92%)
Language : English

Audio
ID : 2
Format : AAC
Format/Info : Advanced Audio Codec
Format profile : LC
Codec ID : 40
Duration : 2h 17mn
Bit rate mode : Constant
Bit rate : 128 Kbps
Channel(s) : 2 channels
Channel positions : Front: L R
Sampling rate : 44.1 KHz
Compression mode : Lossy
Stream size : 125 MiB (8%)
Language : English

 

 

 

 

 

 

WWE RAW 2018 06 04 WEB DL DX-TV Watch / Download

 

 

 

 

Watch online

 

 

Waiting finish converting video

 

 

Server 1

 

 

 

 

 

 

 

 

 

 

 

 

 

 

 

 

Server 2

 

 

 

 

 

 


 

 

 

 

Uploaded By Site DX-TV.com

 

 

 

open rar file to see this password

 

 

 

 

The password : DX-TV.com

 

 

 

 

 

Uploaded.net + rapidgator.net

 

 

 

 

 

 

 
http://shrt10.com/KShKiIgF

 
http://shrt10.com/4aKaSj
 

 

 

 

 

 

 

 

 

WWE RAW 2018 06 04 WEB DL DX-TV Watch / Download

Tags: , , , , , , , ,

This site uses Akismet to reduce spam. Learn how your comment data is processed.

Support HVIPS

Please Disable Ad-Block To View This site. just help us to continue this work