WWE RAW 2018 05 14 720p WEB HEEL Download

WWE RAW 2018 05 14 720p WEB HEEL Download

 

 

 


 

 

dx-tv.com

 

 

 

 

Complete name : WWE.RAW.2018.05.14.720p.WEB.h264-HEEL.mp4
Format : MPEG-4
Format profile : Base Media
Codec ID : isom
File size : 4.71 GiB
Duration : 2h 18mn
Overall bit rate : 4 865 Kbps
Writing application : Lavf58.2.103

Video
ID : 1
Format : AVC
Format/Info : Advanced Video Codec
Codec ID : avc1
Codec ID/Info : Advanced Video Coding
Duration : 2h 18mn
Bit rate mode : Variable
Bit rate : 4 721 Kbps
Maximum bit rate : 4 700 Kbps
Width : 1 280 pixels
Height : 720 pixels
Display aspect ratio : 16:9
Frame rate mode : Variable
Frame rate : 59.940 fps
Minimum frame rate : 25.914 fps
Maximum frame rate : 61.686 fps
Color space : YUV
Chroma subsampling : 4:2:0
Bit depth : 8 bits
Scan type : Progressive
Bits/(Pixel*Frame) : 0.085
Stream size : 4.57 GiB (97%)

Audio
ID : 2
Format : AAC
Format/Info : Advanced Audio Codec
Format profile : LC
Codec ID : 40
Duration : 2h 18mn
Bit rate mode : Constant
Bit rate : 126 Kbps
Channel(s) : 2 channels
Channel positions : Front: L R
Sampling rate : 44.1 KHz
Compression mode : Lossy
Stream size : 125 MiB (3%)

 

 

 

 

 

WWE RAW 2018 05 14 720p WEB HEEL Download

 

 

 

 

Uploaded By Site DX-TV.com

 

 

 

open rar file to see this password

 

 

 

 

The password is : DX-TV.com

 

 

 

 

 

 

Uploaded.net + rapidgator.net

 

 

 

 

 

 
http://shrt10.com/pQhj
 

http://shrt10.com/PzGw7
 

http://shrt10.com/shuhx1sT
 

http://shrt10.com/7i7Y

 

 

 

 

 

 

 

WWE RAW 2018 05 14 720p WEB HEEL Download

Tags: , , , , , ,

Support HVIPS

Please Disable Ad-Block To View This site. just help us to continue this work