WWE RAW 2018 05 14 1080p no cut HDTV Ebi / Download

WWE RAW 2018 05 14 1080p no cut HDTV Ebi / Download

 

 

 

 


 

 

dx-tv.com

 

 

 

 

 

Complete name : WWE.RAW.2018.05.14.1080p.HDTV.x264-Ebi.mp4
Format : MPEG-4
Codec ID : mp42
File size : 12.5 GiB
Duration : 3h 7mn
Overall bit rate : 9 580 Kbps
Encoded date : UTC 2018-05-14 21:44:08
Tagged date : UTC 2018-05-14 21:44:08

Video
ID : 1
Format : AVC
Format/Info : Advanced Video Codec
Codec ID/Info : Advanced Video Coding
Duration : 3h 7mn
Bit rate mode : Variable
Bit rate : 9 500 Kbps
Width : 1 920 pixels
Height : 1 080 pixels
Display aspect ratio : 16:9
Frame rate mode : Constant
Frame rate : 29.970 fps
Color space : YUV
Chroma subsampling : 4:2:0
Bit depth : 8 bits
Scan type : Progressive
Bits/(Pixel*Frame) : 0.153
Stream size : 12.3 GiB (98%)

Audio
ID : 2
Format : AAC
Format/Info : Advanced Audio Codec
Format profile : LC
Codec ID : 40
Duration : 3h 7mn
Bit rate mode : Variable
Bit rate : 212 Kbps
Channel(s) : 2 channels
Channel positions : Front: L R
Sampling rate : 48.0 KHz
Compression mode : Lossy
Stream size : 284 MiB (2%)
Title : Stereo
Language : English
Encoded date : UTC 2018-05-14 21:44:08
Tagged date : UTC 2018-05-14 21:44:08

 

 

 

WWE RAW 2018 05 14 1080p no cut HDTV Ebi / Download

 

 

 

 

 

 

Uploaded.net + rapidgator.net

 

 

 

 

 

 

http://shrt10.com/YVGJqG
 

 

 

http://shrt10.com/KgTuc
 

 

 

http://shrt10.com/z3ay
 

 

 

http://shrt10.com/eRwfW87
 

 

 
http://shrt10.com/qRk67IC

 

 

http://shrt10.com/HPntzb
 

 

 

 

 

 

 

 

WWE RAW 2018 05 14 1080p no cut HDTV Ebi / Download