WWE RAW 2018 04 30 WEBRip TJ /720p Watch / Download

WWE RAW 2018 04 30 WEBRip TJ /720p Watch / Download

 

 

 

 

 

 

 

 

 

dx-tv.com

 

 

 

 

 

Complete name : WWE.RAW.30th.April.2018.WEBRip.h264-TJ.mp4
Format : MPEG-4
Format profile : Base Media / Version 2
Codec ID : mp42
File size : 1.52 GiB
Duration : 2h 21mn
Overall bit rate : 1 542 Kbps
Encoded date : UTC 2018-05-01 04:06:47
Tagged date : UTC 2018-05-01 05:04:43

Video
ID : 1
Format : AVC
Format/Info : Advanced Video Codec
Codec ID : avc1
Codec ID/Info : Advanced Video Coding
Duration : 2h 21mn
Bit rate mode : Variable
Bit rate : 1 400 Kbps
Width : 720 pixels
Height : 404 pixels
Display aspect ratio : 16:9
Original display aspect ratio : 16:9
Frame rate mode : Variable
Frame rate : 59.940 fps
Minimum frame rate : 39.718 fps
Maximum frame rate : 122.449 fps
Color space : YUV
Chroma subsampling : 4:2:0
Bit depth : 8 bits
Scan type : Progressive
Bits/(Pixel*Frame) : 0.080
Stream size : 1.38 GiB (91%)
Writing library : x264 core 112

Audio
ID : 2
Format : AAC
Format/Info : Advanced Audio Codec
Format profile : LC
Codec ID : 40
Duration : 2h 21mn
Bit rate mode : Variable
Bit rate : 128 Kbps
Maximum bit rate : 236 Kbps
Channel(s) : 2 channels
Channel positions : Front: L R
Sampling rate : 44.1 KHz
Compression mode : Lossy
Stream size : 129 MiB (8%)
Encoded date : UTC 2018-05-01 04:06:47
Tagged date : UTC 2018-05-01 05:04:43

 

 

 

 

 

 
Title: WWE.RAW.2018.04.30.720p.WEB.h264-HEEL
Released: 2018.04.30
Source: WEB – USA Network
Resolution: 1280 x 720 @ 59.940 FPS
Video: H.264 @ 4700 kbps
Audio: AAC @ 126 kbps
Size: 4.80 GB
Runtime: 2h 21mn
 

 

 

 

 

 

WWE RAW 2018 04 30 WEBRip TJ /720p Watch / Download

 

 

 

 

Watch online

 

 

Waiting finish converting video

 

 

Server 1

 

 

 

 

 

 

 

 

 

 

 

 

 

 

 

 

 

 

Server 2

 

 

 

 

 

 

 

 

 

 

 

 

 

 

Uploaded By Site DX-TV.com

 

 

 

open rar file to see this password

 

 

 

 

The password is : DX-TV.com

 

 

 

 

400p+720p

 

 

 

 

 

Uploaded.net + rapidgator.net

 

 

 

 

 

http://shrt10.com/BH1kGTW

http://shrt10.com/Qn7oGRL

 

 

http://shrt10.com/TGifZ9

 

 

http://shrt10.com/oaZB8a

 

 

http://shrt10.com/qQm4

 

 

http://shrt10.com/X7XX8L22

 

 

 

 

 

WWE RAW 2018 04 30 WEBRip TJ /720p Watch / Download