WWE RAW 2018 04 23 720p HDTV Ebi

WWE RAW 2018 04 23 720p HDTV Ebi

 

 

 

 

 

dx-tv

 

 

 

 

 

 

 

 
Complete name : WWE.RAW.2018.04.23.720p.HDTV.x264-Ebi.mp4
Format : MPEG-4
Format profile : Base Media / Version 2
Codec ID : mp42
File size : 4.57 GiB
Duration : 2h 18mn
Overall bit rate : 4 713 Kbps
Encoded date : UTC 2018-04-24 04:20:56
Tagged date : UTC 2018-04-24 04:20:56

Video
ID : 1
Format : AVC
Format/Info : Advanced Video Codec
Codec ID : avc1
Codec ID/Info : Advanced Video Coding
Duration : 2h 18mn
Bit rate mode : Variable
Bit rate : 4 500 Kbps
Width : 1 280 pixels
Height : 720 pixels
Display aspect ratio : 16:9
Frame rate mode : Constant
Frame rate : 29.970 fps
Color space : YUV
Chroma subsampling : 4:2:0
Bit depth : 8 bits
Scan type : Progressive
Bits/(Pixel*Frame) : 0.163
Stream size : 4.37 GiB (96%)

Audio
ID : 2
Format : AAC
Format/Info : Advanced Audio Codec
Format profile : LC
Codec ID : 40
Duration : 2h 18mn
Bit rate mode : Variable
Bit rate : 192 Kbps
Channel(s) : 2 channels
Channel positions : Front: L R
Sampling rate : 48.0 KHz
Compression mode : Lossy
Stream size : 190 MiB (4%)
Title : Stereo
Encoded date : UTC 2018-04-24 04:20:56
Tagged date : UTC 2018-04-24 04:20:56

 

 

 

 

 

 

 

 

 

WWE RAW 2018 04 23 720p HDTV Ebi

 

 

 

 

 

Uploaded By Site DX-TV.com

 

 

 

open rar file to see this password

 

 

 

 

The password is : DX-TV.com

 

 

 

 

720p

 

 

 

 

 

Uploaded.net + rapidgator.net

 

 

 

 

 

 

 

http://shrt10.com/tK8s0WM

 

 

 

 

 

 

 

 

http://shrt10.com/gwB5kl

 

 

 

 

 

WWE RAW 2018 04 23 720p HDTV Ebi