WWE RAW 2018 04 16 1080p HDTV Ebi

WWE RAW 2018 04 16 1080p HDTV Ebi

 

 

 

 

 

 

 

 

 

dx-tv.com

 

 

 

 

 
Complete name : WWE.RAW.2018.04.16.1080p.HDTV.x264-Ebi.mp4
Format : MPEG-4
Format profile : Base Media / Version 2
Codec ID : mp42
File size : 8.60 GiB
Duration : 2h 20mn
Overall bit rate : 8 753 Kbps
Encoded date : UTC 2018-04-17 07:37:06
Tagged date : UTC 2018-04-17 07:37:06

Video
ID : 1
Format : AVC
Format/Info : Advanced Video Codec
Codec ID : avc1
Codec ID/Info : Advanced Video Coding
Duration : 2h 20mn
Bit rate mode : Variable
Bit rate : 8 500 Kbps
Width : 1 920 pixels
Height : 1 080 pixels
Display aspect ratio : 16:9
Frame rate mode : Constant
Frame rate : 29.970 fps
Color space : YUV
Chroma subsampling : 4:2:0
Bit depth : 8 bits
Scan type : Progressive
Bits/(Pixel*Frame) : 0.137
Stream size : 8.38 GiB (97%)

Audio
ID : 2
Format : AAC
Format/Info : Advanced Audio Codec
Format profile : LC
Codec ID : 40
Duration : 2h 20mn
Bit rate mode : Variable
Bit rate : 223 Kbps
Channel(s) : 2 channels
Channel positions : Front: L R
Sampling rate : 48.0 KHz
Compression mode : Lossy
Stream size : 225 MiB (3%)
Title : Stereo
Encoded date : UTC 2018-04-17 07:37:06
Tagged date : UTC 2018-04-17 07:37:06

 

 

 

 

WWE RAW 2018 04 16 1080p HDTV Ebi

 

 

 

 

 

 

Uploaded By Site DX-TV.com

 

 

 

open rar file to see this password

 

 

 

 

The password is : DX-TV.com

 

 

 

 

1080P

 

 

 

 

 

Uploaded.net + rapidgator.net

 

 

 

 

 

http://shrt10.com/vlmkM9

 

http://shrt10.com/weWVM

 

http://shrt10.com/htMdUW5A

 

 

http://shrt10.com/XA01

 

http://shrt10.com/ssPAnO

 

http://shrt10.com/vS663m

 

 

 

 

 

WWE RAW 2018 04 16 1080p HDTV Ebi

Leave a Reply

Be the First to Comment!

  Subscribe  
Notify of
Support HVIPS

Please Disable Ad-Block To View This site. just help us to continue this work