Watch / Download WWE NXT TakeOver New Orleans 2018 04 07 Pre Show WEB HEEL /720p

Watch / Download WWE NXT TakeOver New Orleans 2018 04 07 Pre Show WEB HEEL /720p

 

 

 

 

 

 

wwe

 

 

 

 

 

 

Complete name : WWE.NXT.TakeOver.New.Orleans.Pre.Show.WEB.h264-HEEL.mp4
Format : MPEG-4
Format profile : Base Media
Codec ID : isom
File size : 757 MiB
Duration : 58mn 38s
Overall bit rate : 1 805 Kbps
Writing application : Lavf58.2.103

Video
ID : 1
Duration : 58mn 38s
Bit rate mode : Constant
Bit rate : 1 704 Kbps
Width : 896 pixels
Height : 504 pixels
Display aspect ratio : 16:9
Frame rate mode : Variable
Frame rate : 29.970 fps
Minimum frame rate : 23.511 fps
Maximum frame rate : 30.050 fps
Color space : YUV
Chroma subsampling : 4:2:0
Bit depth : 8 bits
Scan type : Progressive
Bits/(Pixel*Frame) : 0.126
Stream size : 715 MiB (94%)

Audio
ID : 2
Format : AAC
Format/Info : Advanced Audio Codec
Format profile : LC
Codec ID : 40
Duration : 58mn 38s
Bit rate mode : Constant
Bit rate : 93.5 Kbps
Channel(s) : 2 channels
Channel positions : Front: L R
Sampling rate : 48.0 KHz
Compression mode : Lossy
Stream size : 39.2 MiB (5%)
Language : English
 

 

 

 

 

 

 
Complete name : WWE.NXT.TakeOver.New.Orleans.Pre.Show.720p.WEB.h264-HEEL.mp4
Format : MPEG-4
Format profile : Base Media
Codec ID : isom
File size : 1.85 GiB
Duration : 58mn 38s
Overall bit rate : 4 505 Kbps
Writing application : Lavf58.2.103

Video
ID : 1
Format : AVC
Format/Info : Advanced Video Codec
Codec ID : avc1
Codec ID/Info : Advanced Video Coding
Duration : 58mn 38s
Bit rate mode : Constant
Bit rate : 4 372 Kbps
Width : 1 280 pixels
Height : 720 pixels
Display aspect ratio : 16:9
Frame rate mode : Variable
Frame rate : 29.970 fps
Minimum frame rate : 23.511 fps
Maximum frame rate : 29.970 fps
Color space : YUV
Chroma subsampling : 4:2:0
Bit depth : 8 bits
Scan type : Progressive
Bits/(Pixel*Frame) : 0.158
Stream size : 1.79 GiB (97%)

Audio
ID : 2
Format : AAC
Format/Info : Advanced Audio Codec
Format profile : LC
Codec ID : 40
Duration : 58mn 38s
Bit rate mode : Variable
Bit rate : 125 Kbps
Maximum bit rate : 132 Kbps
Channel(s) : 2 channels
Channel positions : Front: L R
Sampling rate : 48.0 KHz
Compression mode : Lossy
Stream size : 52.6 MiB (3%)
Language : English
 

Watch / Download WWE NXT TakeOver New Orleans 2018 04 07 Pre Show WEB HEEL /720p

 

 

 

 

Watch online

 

 

Waiting finish converting video

 

 

Server 1

 

 

 

 

 

 

 

 

 

 

 

 

 

 

 

 

Server 2

 

 

 

 

 

 


 

 

 

 

 

Uploaded By Site DX-TV.com

 

 

 

open rar file to see this password

 

 

 

 

The password is : DX-TV.com

 

 

 

 

400p+720p

 

 

 

 

 

Uploaded.net + rapidgator.net

 

 

 

 

 

http://shrt10.com/Yhcr

 

 

http://shrt10.com/HKbYfXI9

 

 

http://shrt10.com/mijuP

 

 

http://shrt10.com/5Y2GuY

 

 

 

 

 

 

 

Watch / Download WWE NXT TakeOver New Orleans 2018 04 07 Pre Show WEB HEEL /720p