WWE NXT 2018 05 16 WEB HEEL /720p Watch / Download

WWE NXT 2018 05 16 WEB HEEL /720p Watch / Download

 

 

 

 


 

dx-tv.com

 

 

 

 

 

 
Complete name : WWE.NXT.2018.05.16.WEB.h264-HEEL.mp4
Format : MPEG-4
Format profile : Base Media
Codec ID : isom
File size : 717 MiB
Duration : 56mn 38s
Overall bit rate : 1 770 Kbps

Video
ID : 1
Format : AVC
Format/Info : Advanced Video Codec
Codec ID : avc1
Codec ID/Info : Advanced Video Coding
Duration : 56mn 38s
Bit rate mode : Variable
Bit rate : 1 670 Kbps
Maximum bit rate : 2 125 Kbps
Width : 960 pixels
Height : 540 pixels
Display aspect ratio : 16:9
Frame rate mode : Constant
Frame rate : 29.970 fps
Color space : YUV
Chroma subsampling : 4:2:0
Bit depth : 8 bits
Scan type : Progressive
Bits/(Pixel*Frame) : 0.107
Stream size : 677 MiB (94%)

Audio
ID : 2
Format : AAC
Format/Info : Advanced Audio Codec
Format profile : LC
Codec ID : 40
Duration : 56mn 38s
Bit rate mode : Variable
Bit rate : 93.5 Kbps
Maximum bit rate : 100 Kbps
Channel(s) : 2 channels
Channel positions : Front: L R
Sampling rate : 48.0 KHz
Compression mode : Lossy
Stream size : 37.9 MiB (5%)

 

 

 

 

 
Complete name : WWE.NXT.2018.05.16.720p.WEB.h264-HEEL.mp4
Format : MPEG-4
Format profile : Base Media
Codec ID : isom
File size : 1.74 GiB
Duration : 56mn 38s
Overall bit rate : 4 390 Kbps

Video
ID : 1
Format : AVC
Format/Info : Advanced Video Codec
Codec ID : avc1
Codec ID/Info : Advanced Video Coding
Duration : 56mn 38s
Bit rate mode : Variable
Bit rate : 4 288 Kbps
Maximum bit rate : 5 500 Kbps
Width : 1 280 pixels
Height : 720 pixels
Display aspect ratio : 16:9
Frame rate mode : Constant
Frame rate : 29.970 fps
Color space : YUV
Chroma subsampling : 4:2:0
Bit depth : 8 bits
Scan type : Progressive
Bits/(Pixel*Frame) : 0.155
Stream size : 1.70 GiB (98%)

Audio
ID : 2
Format : AAC
Format/Info : Advanced Audio Codec
Format profile : LC
Codec ID : 40
Duration : 56mn 38s
Bit rate mode : Variable
Bit rate : 93.5 Kbps
Maximum bit rate : 100 Kbps
Channel(s) : 2 channels
Channel positions : Front: L R
Sampling rate : 48.0 KHz
Compression mode : Lossy
Stream size : 37.9 MiB (2%)
 

 

 

 

 

 

 

 

WWE NXT 2018 05 16 WEB HEEL /720p Watch / Download

 

 

 

 

Watch online

 

 

Waiting finish converting video

 

 

Server 1

 

 

 

 

 

 

 

 

 

 

 

 

 

 

 

Server 2

 

 

 

 

 

 

 

 

 

 

 

 

 

Uploaded By Site DX-TV.com

 

 

 

open rar file to see this password

 

 

 

 

The password is : DX-TV.com

 

 

 

 

400p+720p

 

 

 

 

 

Uploaded.net + rapidgator.net

 

 

 

 

 
http://shrt10.com/cpHlHoJa
 

http://shrt10.com/AsmwCxjr
 

http://shrt10.com/b3qe
 

http://shrt10.com/2ivK9
 

 

 

 

 

 

WWE NXT 2018 05 16 WEB HEEL /720p Watch / Download

Leave a Reply

Support HVIPS

Please Disable Ad-Block To View This site. just help us to continue this work