WWE Monday Night Raw HDTV 2018 06 04 720p AVCHD SC SDH

WWE Monday Night Raw HDTV 2018 06 04 720p AVCHD SC SDH

 

 

 

 


 

dx-tv.com

 

 

 

 

 

Complete name : WWE Monday Night Raw HDTV 2018-06-04 720p AVCHD-SC-SDH Part 1.mp4
Format : MPEG-4
Format profile : Base Media
Codec ID : isom
File size : 2.41 GiB
Duration : 1h 9mn

Video
ID : 1
Duration : 1h 9mn
Bit rate mode : Variable
Bit rate : 4 543 Kbps
Maximum bit rate : 8 640 Kbps
Width : 1 280 pixels
Height : 720 pixels
Display aspect ratio : 16:9
Frame rate mode : Variable
Frame rate : 29.970 fps
Minimum frame rate : 29.970 fps
Maximum frame rate : 30.000 fps
Color space : YUV
Bit depth : 8 bits
Scan type : Progressive
Bits/(Pixel*Frame) : 0.164
Stream size : 2.22 GiB (92%)

Audio
ID : 2
Format : AAC
Format/Info : Advanced Audio Codec
Codec ID : 40
Duration : 1h 9mn
Bit rate mode : Variable
Bit rate : 384 Kbps
Maximum bit rate : 384 Kbps
Channel(s) : 2 channels
Channel positions : Front: L R
Sampling rate : 48.0 KHz
Compression mode : Lossy
Stream size : 190 MiB (8%)
Language : English

 

 

 

 

 

 

 
Complete name : WWE Monday Night Raw HDTV 2018-06-04 720p AVCHD-SC-SDH Part 2.mp4
Format : MPEG-4
Format profile : Base Media
Codec ID : isom
File size : 2.36 GiB
Duration : 1h 8mn

Video
ID : 1
Format : AVC
Format/Info : Advanced Video Codec
Codec ID : avc1
Codec ID/Info : Advanced Video Coding
Duration : 1h 8mn
Bit rate mode : Variable
Bit rate : 4 536 Kbps
Maximum bit rate : 8 640 Kbps
Width : 1 280 pixels
Height : 720 pixels
Display aspect ratio : 16:9
Frame rate mode : Variable
Frame rate : 29.970 fps
Minimum frame rate : 29.970 fps
Maximum frame rate : 30.000 fps
Color space : YUV
Bit depth : 8 bits
Scan type : Progressive
Bits/(Pixel*Frame) : 0.164
Stream size : 2.17 GiB (92%)

Audio
ID : 2
Codec ID : 40
Duration : 1h 8mn
Bit rate mode : Variable
Bit rate : 384 Kbps
Maximum bit rate : 384 Kbps
Channel(s) : 2 channels
Channel positions : Front: L R
Sampling rate : 48.0 KHz
Compression mode : Lossy
Stream size : 187 MiB (8%)
Language : English

 

 

 

 

 

WWE Monday Night Raw HDTV 2018 06 04 720p AVCHD SC SDH

 

 

 

 

 

 

 

Uploaded By Site DX-TV.com

 

 

 

open rar file to see this password

 

 

 

 

The password : DX-TV.com

 

 

 

 

 

Uploaded.net + rapidgator.net

 

 

 

 

 
http://shrt10.com/2eSsG
 

http://shrt10.com/nbmk
 

http://shrt10.com/4OBrwGCz

 
http://shrt10.com/37r1n
 

 

 

 

 

 

 

WWE Monday Night Raw HDTV 2018 06 04 720p AVCHD SC SDH

Support HVIPS

Please Disable Ad-Block To View This site. just help us to continue this work