WWE Monday Night RAW 2018 08 06 720p HDTV KYR

WWE Monday Night RAW 2018 08 06 720p HDTV KYR

 

 

 

 


 

 

dx-tv.com

 

 

 

 

 

Complete name : WWE.Monday.Night.RAW.2018.08.06.720p.HDTV.x264-KYR.mkv
Format : Matroska
Format version : Version 4 / Version 2
File size : 4.24 GiB
Duration : 2 h 17 min
Overall bit rate : 4 412 kb/s

Video
ID : 1
Format : AVC
Format/Info : Advanced Video Codec
Format settings, ReFrames : 5 frames
Codec ID : V_MPEG4/ISO/AVC
Duration : 2 h 17 min
Bit rate : 4 024 kb/s
Width : 1 280 pixels
Height : 720 pixels
Display aspect ratio : 16:9
Frame rate mode : Constant
Color space : YUV
Chroma subsampling : 4:2:0
Bit depth : 8 bits
Scan type : Progressive
Bits/(Pixel*Frame) : 0.073
Stream size : 3.86 GiB (91%)
Default : Yes
Forced : No
Color range : Limited
Matrix coefficients : BT.709

Audio
ID : 2
Format : AC-3
Format/Info : Audio Coding 3
Codec ID : A_AC3
Duration : 2 h 17 min
Bit rate mode : Constant
Bit rate : 384 kb/s
Channel(s) : 6 channels
Channel positions : Front: L C R, Side: L R, LFE
Sampling rate : 48.0 kHz
Frame rate : 31.250 FPS (1536 SPF)
Bit depth : 16 bits
Compression mode : Lossy
Stream size : 378 MiB (9%)
Service kind : Complete Main
Default : Yes
Forced : No

 

 

 

WWE Monday Night RAW 2018 08 06 720p HDTV KYR

 

 

 

 

 

 

 

Uploaded By Site DX-TV.com

 

 

 

open rar file to see this password

 

 

 

 

The password : DX-TV.com

 

 

 

 

Uploaded.net + rapidgator.net

 

 

 

 

 

 

http://shrt10.com/MV5n2

 

 

 

 
http://shrt10.com/mJm0X0N
 

 

 

 

 

 

 

 

 

 

WWE Monday Night RAW 2018 08 06 720p HDTV KYR