WWE Monday Night RAW 2018 07 23 720p HDTV KYR

WWE Monday Night RAW 2018 07 23 720p HDTV KYR

 

 

 

 


 

 

 

dx-tv.com

 

 

 

 

 

 
Complete name : WWE.Monday.Night.RAW.2018.07.23.720p.HDTV.x264-KYR.mkv
Format : Matroska
File size : 4.12 GiB
Duration : 2h 18mn

Video
ID : 1
Format : AVC
Format/Info : Advanced Video Codec
Duration : 2h 18mn
Bit rate : 3 776 Kbps
Width : 1 280 pixels
Height : 720 pixels
Display aspect ratio : 16:9
Frame rate : 59.940 fps
Color space : YUV
Chroma subsampling : 4:2:0
Bit depth : 8 bits
Scan type : Progressive
Bits/(Pixel*Frame) : 0.068
Stream size : 3.66 GiB (89%)

Audio
ID : 2
Format : AC-3
Codec ID : A_AC3
Duration : 2h 18mn
Bit rate mode : Constant
Bit rate : 384 Kbps
Channel(s) : 6 channels
Sampling rate : 48.0 KHz
Bit depth : 16 bits
Compression mode : Lossy
Stream size : 381 MiB (9%)

 

 

 

 

 

 

 

WWE Monday Night RAW 2018 07 23 720p HDTV KYR

 

 

 

Uploaded By Site DX-TV.com

 

 

 

open rar file to see this password

 

 

 

 

The password : DX-TV.com

 

 

 

 

Uploaded.net + rapidgator.net

 

 

 

 

 

 

http://shrt10.com/JyYQ

 

 

 

 

 

http://shrt10.com/Vm2yyYB

 

 

 

 

 

 

 

 

WWE Monday Night RAW 2018 07 23 720p HDTV KYR

This site uses Akismet to reduce spam. Learn how your comment data is processed.

Support HVIPS

Please Disable Ad-Block To View This site. just help us to continue this work