WWE Monday Night Raw 2018 06 04 HDTV NWCHD /720p Watch / Download

WWE Monday Night Raw 2018 06 04 HDTV NWCHD /720p Watch / Download

 

 

 

 


 

 

dx-tv.com

 

 

 

 

 

Complete name : WWE.Monday.Night.Raw.2018.06.04.HDTV.x264-NWCHD.mp4
Format : MPEG-4
Format profile : Base Media / Version 2
Codec ID : mp42
File size : 1.49 GiB
Duration : 2h 14mn
Overall bit rate : 1 593 Kbps
Encoded date : UTC 2018-06-05 13:20:55
Tagged date : UTC 2018-06-05 13:20:55

Video
ID : 1
Format : AVC
Format/Info : Advanced Video Codec
Codec ID/Info : Advanced Video Coding
Duration : 2h 14mn
Bit rate mode : Variable
Bit rate : 1 400 Kbps
Width : 704 pixels
Height : 400 pixels
Display aspect ratio : 16:9
Frame rate mode : Constant
Frame rate : 29.970 fps
Color space : YUV
Chroma subsampling : 4:2:0
Bit depth : 8 bits
Scan type : Progressive
Bits/(Pixel*Frame) : 0.166
Stream size : 1.31 GiB (88%)

Audio
ID : 2
Format : AAC
Format/Info : Advanced Audio Codec
Format profile : LC
Codec ID : 40
Duration : 2h 14mn
Bit rate mode : Variable
Bit rate : 192 Kbps
Channel(s) : 2 channels
Channel positions : Front: L R
Sampling rate : 48.0 KHz
Compression mode : Lossy
Stream size : 184 MiB (12%)
Title : Stereo
Encoded date : UTC 2018-06-05 13:20:55
Tagged date : UTC 2018-06-05 13:20:55

 

 

 

 

 

 
File Name – WWE.Monday.Night.Raw.2018.06.04.720p.HDTV.x264-NWCHD
Released – 06.05.2018
Aired – 06.04.2018
Size – 4.38 GB
Source – USA HD
Container – MP4
Resolution – 1280 x 720 (16:9) @ 29.970 FPS
Video – x264 @ 4500 kbps
Audio – AAC 192 kbps
Length – 02:14:04 min
 

 

 

 

 

WWE Monday Night Raw 2018 06 04 HDTV NWCHD /720p Watch / Download

 

 

 

 

Watch online

 

 

Waiting finish converting video

 

 

Server 1

 

 

 

 

 

 

 

 

 

 

 

 

 

 

 

 

Server 2

 

 

 

 

 

 


 

 

 

 

Uploaded By Site DX-TV.com

 

 

 

open rar file to see this password

 

 

 

 

The password : DX-TV.com

 

 

 

 

400p+720p

 

 

 

 

 

Uploaded.net + rapidgator.net

 

 

 

 

 

 
http://shrt10.com/88SHgr
 

http://shrt10.com/oO76
 

http://shrt10.com/tr7QCGtm

 
http://shrt10.com/jmcv
 

 

 

 

 

 

WWE Monday Night Raw 2018 06 04 HDTV NWCHD /720p Watch / Download

This site uses Akismet to reduce spam. Learn how your comment data is processed.

Support HVIPS

Please Disable Ad-Block To View This site. just help us to continue this work