WWE Monday Night RAW 2018 05 28 720p HDTV KYR /Download

WWE Monday Night RAW 2018 05 28 720p HDTV KYR /Download

 

 

 

 

 

 

dx-tv

 

 

 

 

 

 
Complete name : wwe.monday.night.raw.2018.05.28.720p.hdtv.x264-kyr.mkv
Format : Matroska
File size : 4.28 GiB
Duration : 2h 11mn
Overall bit rate : 4 656 Kbps

Video
ID : 1
Format : AVC
Format/Info : Advanced Video Codec
Duration : 2h 11mn
Bit rate : 4 179 Kbps
Width : 1 280 pixels
Height : 720 pixels
Display aspect ratio : 16:9
Frame rate : 59.940 fps
Color space : YUV
Chroma subsampling : 4:2:0
Bit depth : 8 bits
Scan type : Progressive
Bits/(Pixel*Frame) : 0.076
Stream size : 3.84 GiB (90%)

Audio
ID : 2
Format : AC-3
Format/Info : Audio Coding 3
Mode extension : CM (complete main)
Codec ID : A_AC3
Duration : 2h 11mn
Bit rate mode : Constant
Bit rate : 384 Kbps
Channel(s) : 6 channels
Channel positions : Front: L C R, Side: L R, LFE
Sampling rate : 48.0 KHz
Bit depth : 16 bits
Compression mode : Lossy
Stream size : 362 MiB (8%)

 

 

 

 

 

 

 

 

 

 

 

WWE Monday Night RAW 2018 05 28 720p HDTV KYR /Download

 

 

 

 

 

 

Uploaded By Site DX-TV.com

 

 

 

open rar file to see this password

 

 

 

 

The password is : DX-TV.com

 

 

 

 

 

 

Uploaded.net + rapidgator.net

 

 

 

 

 

 

http://shrt10.com/uKFs3

 
http://shrt10.com/z9qAjPl
 

 

 

 

 

 

 

 

 

WWE Monday Night RAW 2018 05 28 720p HDTV KYR /Download

Support HVIPS

Please Disable Ad-Block To View This site. just help us to continue this work