WWE Monday Night Raw 2018 05 07 HDTV NWCHD Watch / Download

WWE Monday Night Raw 2018 05 07 HDTV NWCHD Watch / Download

 

 

 

 

 

 

 

 

 

dx-tv.com

 

 

 

 

 

Complete name : WWE.Monday.Night.Raw.2018.05.07.HDTV.x264-NWCHD.mp4
Format : MPEG-4
Format profile : Base Media
Codec ID : isom
File size : 1.51 GiB
Duration : 2h 16mn
Overall bit rate : 1 590 Kbps
Writing application : Lavf56.40.101

Video
ID : 1
Format : AVC
Format/Info : Advanced Video Codec
Format settings, GOP : N=1
Codec ID : avc1
Codec ID/Info : Advanced Video Coding
Duration : 2h 16mn
Bit rate mode : Variable
Bit rate : 1 400 Kbps
Width : 704 pixels
Height : 400 pixels
Display aspect ratio : 16:9
Frame rate mode : Variable
Frame rate : 29.970 fps
Minimum frame rate : 29.126 fps
Maximum frame rate : 29.970 fps
Color space : YUV
Chroma subsampling : 4:2:0
Bit depth : 8 bits
Scan type : Progressive
Bits/(Pixel*Frame) : 0.166
Stream size : 1.32 GiB (87%)
Audio
ID : 2
Format : AAC
Format/Info : Advanced Audio Codec
Format profile : LC
Codec ID : 40
Duration : 2h 16mn
Bit rate mode : Variable
Bit rate : 192 Kbps
Maximum bit rate : 200 Kbps
Channel(s) : 2 channels
Channel positions : Front: L R
Sampling rate : 48.0 KHz
Compression mode : Lossy
Stream size : 187 MiB (12%)

 

 

 

 
File Name – WWE.Monday.Night.Raw.2018.05.07.720p.HDTV.x264-NWCHD
Released – 05.07.2018
Aired – 05.07.2018
Size – 4.43 GB
Source – USA HD
Container – MP4
Resolution – 1280 x 720 (16:9) @ 29.970 FPS
Video – x264 @ 4500 kbps
Audio – AAC 192 kbps
Length – 02:16:06 min
 

 

 

 

 

 

WWE Monday Night Raw 2018 05 07 HDTV NWCHD Watch / Download

 

 

 

 

Watch online

 

 

Waiting finish converting video

 

 

Server 1

 

 

 

 

 

 

 

 

 

 

 

 

 

 

 

Server 2

 

 

 

 

 

 


 

 

 

 

 

Uploaded By Site DX-TV.com

 

 

 

open rar file to see this password

 

 

 

 

The password is : DX-TV.com

 

 

 

 

 

 

Uploaded.net + rapidgator.net

 

 

 

 

 

http://shrt10.com/mPWYkZ

 

 

 

 

 

http://shrt10.com/QEHB

 

 

 

 

 

 

 

 

 

 

WWE Monday Night Raw 2018 05 07 HDTV NWCHD Watch / Download

Support HVIPS

Please Disable Ad-Block To View This site. just help us to continue this work