WWE Main Event 2018 06 14 HDTV Ebi /720p Watch / Download

WWE Main Event 2018 06 14 HDTV Ebi /720p Watch / Download

 

 

 

 


 

 

dx-tv.com

 

 

 

 

 

WWE.Main.Event.2018.06.14.HDTV.x264-Ebi
Release Info:
Show Name: WWE Main Event
Genre: Wrestling
Release Date: 2018-06-14(UK)
Air Date: 2018-06-15(AE)
Source : HDTV
Container: MP4
Video: x264, 1464Kbps, 29,970fps, 712×400, 16:9
Audio: AAC, 160kps, 48KHz, 2ch
Size: 441 MB
Runtime: 42mn 05s
 

 

 

 

 

 
Complete name : WWE.Main.Event.2018.06.15.720p.HDTV.x264-Ebi.mp4
Format : MPEG-4
Format profile : Base Media / Version 2
Codec ID : mp42
File size : 1.38 GiB
Duration : 42mn 5s
Overall bit rate : 4 689 Kbps
Encoded date : UTC 2018-06-14 14:19:48
Tagged date : UTC 2018-06-14 14:19:48

Video
ID : 1
Format : AVC
Format/Info : Advanced Video Codec
Codec ID : avc1
Codec ID/Info : Advanced Video Coding
Duration : 42mn 5s
Bit rate mode : Variable
Bit rate : 4 500 Kbps
Width : 1 280 pixels
Height : 720 pixels
Display aspect ratio : 16:9
Frame rate mode : Constant
Frame rate : 29.970 fps
Color space : YUV
Chroma subsampling : 4:2:0
Bit depth : 8 bits
Scan type : Progressive
Bits/(Pixel*Frame) : 0.163
Stream size : 1.32 GiB (96%)

Audio
ID : 2
Format : AAC
Format/Info : Advanced Audio Codec
Format profile : LC
Codec ID : 40
Duration : 42mn 5s
Bit rate mode : Variable
Bit rate : 192 Kbps
Channel(s) : 2 channels
Channel positions : Front: L R
Sampling rate : 48.0 KHz
Compression mode : Lossy
Stream size : 57.9 MiB (4%)
Title : Stereo
Encoded date : UTC 2018-06-14 14:19:48
Tagged date : UTC 2018-06-14 14:19:48

 

 

 

 

 

 

WWE Main Event 2018 06 14 HDTV Ebi /720p Watch / Download

 

 

 

 

Watch online

 

 

Waiting finish converting video

 

 

Server 1

 

 

 

 

 

 

 

 

 

 

 

 

 

 

 

 

Server 2

 

 

 

 

 

 


 

 

 

 

 

Uploaded By Site DX-TV.com

 

 

 

open rar file to see this password

 

 

 

 

The password : DX-TV.com

 

 

 

 

400p+720p

 

 

 

 

 

Uploaded.net + rapidgator.net

 

 

 

 

 

http://shrt10.com/vJAF
 

http://shrt10.com/Vb5m
 

http://shrt10.com/xEe2MPn8

 
http://shrt10.com/KtZX9v
 

 

 

 

 

WWE Main Event 2018 06 14 HDTV Ebi /720p Watch / Download