WWE Main Event 2018 05 03 720p WEB HEEL Watch / Download

WWE Main Event 2018 05 03 720p WEB HEEL Watch / Download

 

 

 

 


 

 

dx-tv.com

 

 

 

 

 

 

 

Complete name : WWE.Main.Event.2018.05.03.720p.WEB.h264-HEEL.mp4
Format : MPEG-4
Format profile : Base Media
Codec ID : isom
File size : 1.42 GiB
Duration : 46mn 8s
Overall bit rate : 4 420 Kbps
Writing application : Lavf58.2.103

Video
ID : 1
Format : AVC
Format/Info : Advanced Video Codec
Codec ID : avc1
Codec ID/Info : Advanced Video Coding
Duration : 46mn 8s
Bit rate mode : Variable
Bit rate : 4 317 Kbps
Maximum bit rate : 5 500 Kbps
Width : 1 280 pixels
Height : 720 pixels
Display aspect ratio : 16:9
Frame rate mode : Constant
Frame rate : 29.970 fps
Color space : YUV
Chroma subsampling : 4:2:0
Bit depth : 8 bits
Scan type : Progressive
Bits/(Pixel*Frame) : 0.156
Stream size : 1.39 GiB (98%)

Audio
ID : 2
Format : AAC
Format/Info : Advanced Audio Codec
Format profile : LC
Codec ID : 40
Duration : 46mn 8s
Bit rate mode : Variable
Bit rate : 93.5 Kbps
Maximum bit rate : 102 Kbps
Channel(s) : 2 channels
Channel positions : Front: L R
Sampling rate : 48.0 KHz
Compression mode : Lossy
Stream size : 30.8 MiB (2%)

 

 

 

 

 

 

 

WWE Main Event 2018 05 03 720p WEB HEEL Watch / Download

 

 

 

 

Watch online

 

 

Waiting finish converting video

 

 

Server 1

 

 

 

 

 

 

 

 

 

 

 

 

 

 

 

 

 

 

Server 2

 

 

 

 

 

 

 

 

 

 

 

 

 

 

 

Uploaded By Site DX-TV.com

 

 

 

open rar file to see this password

 

 

 

 

The password is : DX-TV.com

 

 

 

 

 

 

Uploaded.net + rapidgator.net

 

 

 

 

 
http://shrt10.com/XtGJ45

 
http://shrt10.com/I7plGgD
 

 

 

 

 

 

 

 

 

 

WWE Main Event 2018 05 03 720p WEB HEEL Watch / Download

Support HVIPS

Please Disable Ad-Block To View This site. just help us to continue this work