WWE Fastlane 2018 PPV 1080p HDTV Ebi

WWE Fastlane 2018 PPV 1080p HDTV Ebi

 

 

s

 

 

 

wwe

 

 

 

 

 

 

Complete name : WWE.Fastlane.2018.PPV.1080p.HDTV.x264-Ebi.mp4
Format : MPEG-4
Format profile : Base Media / Version 2
Codec ID : mp42
File size : 10.7 GiB
Duration : 2h 55mn
Overall bit rate : 8 735 Kbps
Encoded date : UTC 2018-03-12 12:12:24
Tagged date : UTC 2018-03-12 12:12:24

Video
ID : 1
Format : AVC
Format/Info : Advanced Video Codec
Codec ID : avc1
Codec ID/Info : Advanced Video Coding
Duration : 2h 55mn
Bit rate mode : Variable
Bit rate : 8 500 Kbps
Width : 1 920 pixels
Height : 1 080 pixels
Display aspect ratio : 16:9
Frame rate mode : Constant
Frame rate : 29.970 fps
Color space : YUV
Chroma subsampling : 4:2:0
Bit depth : 8 bits
Scan type : Progressive
Bits/(Pixel*Frame) : 0.137
Stream size : 10.4 GiB (97%)

Audio
ID : 2
Format : AAC
Format/Info : Advanced Audio Codec
Format profile : LC
Codec ID : 40
Duration : 2h 55mn
Bit rate mode : Variable
Bit rate : 224 Kbps
Channel(s) : 2 channels
Channel positions : Front: L R
Sampling rate : 48.0 KHz
Compression mode : Lossy
Stream size : 282 MiB (3%)
Title : Stereo
Encoded date : UTC 2018-03-12 12:12:24
Tagged date : UTC 2018-03-12 12:12:24

 

 

 

 

 

 

 

 

 

 

WWE Fastlane 2018 PPV 1080p HDTV Ebi

 

 

 

 

Uploaded By Site DX-TV.com

 

 

 

open rar file to see this password

 

 

 

 

The password is : DX-TV.com

 

 

 

 

 

 

Uploaded.net + rapidgator.net

 

 

 

 

 

 

http://shrt10.com/xFc5Sy2

http://shrt10.com/do70ijWr

 

http://shrt10.com/8kng4KJm

 

http://shrt10.com/YNVl1soz

 

http://shrt10.com/Z7lG4u

 

http://shrt10.com/MfSD

 

http://shrt10.com/tVfnVmzK

 

http://shrt10.com/1VMX3XG

 

 

 

 

 

 

 

 

 

 

 

 

 

 

 

WWE Fastlane 2018 PPV 1080p HDTV Ebi