WWE Clash of Champions 2017 PPV 1080p HDTV Ebi Full Show Download

WWE Clash of Champions 2017 PPV 1080p HDTV Ebi Full Show Download

 

 

 

 

 

wwe

 

 

 

 

 

 

WWE.Clash.of.Champions.2017.PPV.1080p.HDTV.x264-Ebi
Release Info:
Show Name: WWE Clash of Champions 2017 PPV
Genre: Wrestling
Release Date: 2017-12-18(UK)
Air Date: 2017-12-17(US)
Source : HDTV
Container: MP4
Video: x264, 8724Kbps, 29,970fps, 1920×1080, 16:9
Audio: AAC, 224Kbps, 48KHz, 2ch
Size: 10.1 GB
Runtime: 2h 45mn
 

Complete name : WWE.Clash.of.Champions.2017.PPV.1080p.HDTV.x264-Ebi.mp4
Format : MPEG-4
Format profile : Base Media / Version 2
Codec ID : mp42
File size : 10.1 GiB
Duration : 2h 45mn
Overall bit rate : 8 724 Kbps
Encoded date : UTC 2017-12-18 09:09:43
Tagged date : UTC 2017-12-18 09:09:43
Writing application : HandBrake 1.0.7 2017040900

Video
ID : 1
Format : AVC
Format/Info : Advanced Video Codec
Codec ID : avc1
Codec ID/Info : Advanced Video Coding
Duration : 2h 45mn
Bit rate mode : Variable
Bit rate : 8 500 Kbps
Width : 1 920 pixels
Height : 1 080 pixels
Display aspect ratio : 16:9
Frame rate mode : Constant
Frame rate : 29.970 fps
Color space : YUV
Chroma subsampling : 4:2:0
Bit depth : 8 bits
Scan type : Progressive
Bits/(Pixel*Frame) : 0.137
Stream size : 9.84 GiB (97%)

Audio
ID : 2
Format : AAC
Format/Info : Advanced Audio Codec
Format profile : LC
Codec ID : 40
Duration : 2h 45mn
Bit rate mode : Variable
Bit rate : 224 Kbps
Channel(s) : 2 channels
Channel positions : Front: L R
Sampling rate : 48.0 KHz
Compression mode : Lossy
Stream size : 266 MiB (3%)
Title : Stereo
Encoded date : UTC 2017-12-18 09:09:43
Tagged date : UTC 2017-12-18 09:09:43

 

 

 

 

 

 

 

 

 

 

 

WWE Clash of Champions 2017 PPV 1080p HDTV Ebi Full Show Download

 

 

 

 

 

 

Uploaded By Site DX-TV.com

 

 

 

open rar file to see this password

 

 

 

 

The password is : DX-TV.com

 

 

 

 

1080p

 

 

 

 

rapidgator.net

 

 

 

 

 

 

 

http://shrt10.com/gNuaeM

 

 

http://shrt10.com/Jped32U

 

 

http://shrt10.com/3HrLh

 

 

http://shrt10.com/Q6udq

 

 

 

 

 

 

 

 

 

WWE Clash of Champions 2017 PPV 1080p HDTV Ebi Full Show Download

Support HVIPS

Please Disable Ad-Block To View This site. just help us to continue this work