WWE 24 S01E16 RAW 25 WEB HEEL /720p Watch /Download

WWE 24 S01E16 RAW 25 WEB HEEL /720p Watch /Download

 

 

 

 

 

wwe

 

 

 

 

 

 
Complete name : WWE.24.S01E16.RAW.25.WEB.h264-HEEL.mp4
Format : MPEG-4
Format profile : Base Media
Codec ID : isom
File size : 656 MiB
Duration : 51mn 21s
Overall bit rate : 1 786 Kbps
Writing application : Lavf58.2.103

Video
ID : 1
Format : AVC
Format/Info : Advanced Video Codec
Codec ID : avc1
Codec ID/Info : Advanced Video Coding
Duration : 51mn 21s
Bit rate mode : Variable
Bit rate : 1 686 Kbps
Maximum bit rate : 2 125 Kbps
Width : 960 pixels
Height : 540 pixels
Display aspect ratio : 16:9
Frame rate mode : Constant
Frame rate : 29.970 fps
Color space : YUV
Chroma subsampling : 4:2:0
Bit depth : 8 bits
Scan type : Progressive
Bits/(Pixel*Frame) : 0.108
Stream size : 619 MiB (94%)

Audio
ID : 2
Format : AAC
Format/Info : Advanced Audio Codec
Format profile : LC
Codec ID : 40
Duration : 51mn 21s
Bit rate mode : Variable
Bit rate : 93.5 Kbps
Maximum bit rate : 101 Kbps
Channel(s) : 2 channels
Channel positions : Front: L R
Sampling rate : 48.0 KHz
Compression mode : Lossy
Stream size : 34.3 MiB (5%)
 

 

 

 

 

 

 

 
Title: WWE.24.S01E16.RAW.25.720p.WEB.h264-HEEL
Released: 2018.04.09
Source: WWE Network
Resolution: 1280 x 720 @ 29.970 FPS
Video: H.264 @ 4500 kbps
Audio: AAC @ 96 kbps
Size: 1.62 GB
Runtime: 51mn 21sec
 

 

 

 

 

 

 

 

 

 

 

WWE 24 S01E16 RAW 25 WEB HEEL /720p Watch /Download

 

 

 

 

Watch online

 

 

Waiting finish converting video

 

 

Server 1

 

 

 

 

 

 

 

 

 

 

 

 

 

 

 

 

 

 

 

 

Server 2

 

 

 

 

 

 


 

 

 

 

 

 

 

Uploaded By Site DX-TV.com

 

 

 

open rar file to see this password

 

 

 

 

The password is : DX-TV.com

 

 

 

 

400p+720p

 

 

 

 

 

Uploaded.net + rapidgator.net

 

 

 

 

 

http://shrt10.com/vlisN6VF

 

 

http://shrt10.com/fKzELLoS

 

 

http://shrt10.com/2PMo

 

 

http://shrt10.com/3HJB1Bu

 

 

 

 

 

 

 

WWE 24 S01E16 RAW 25 WEB HEEL /720p Watch /Download

Support HVIPS

Please Disable Ad-Block To View This site. just help us to continue this work