WWE 205 Live 2018 07 10 WEB HEEL mp4 /720p Watch / Download

WWE 205 Live 2018 07 10 WEB HEEL mp4 /720p Watch / Download

 

 

 

 


 

 

dx-tv.com

 

 

 

 

 

Complete name : WWE.205.Live.2018.07.10.WEB.h264-HEEL.mp4
Format : MPEG-4
Format profile : Base Media
Codec ID : isom
File size : 704 MiB
Duration : 54mn 34s
Overall bit rate : 1 804 Kbps

Video
ID : 1
Format : AVC
Format/Info : Advanced Video Codec
Codec ID : avc1
Codec ID/Info : Advanced Video Coding
Duration : 54mn 34s
Bit rate mode : Constant
Bit rate : 1 704 Kbps
Width : 896 pixels
Height : 504 pixels
Display aspect ratio : 16:9
Frame rate mode : Variable
Frame rate : 29.970 fps
Minimum frame rate : 20.819 fps
Maximum frame rate : 29.970 fps
Color space : YUV
Chroma subsampling : 4:2:0
Bit depth : 8 bits
Scan type : Progressive
Bits/(Pixel*Frame) : 0.126
Stream size : 665 MiB (94%)

Audio
ID : 2
Format : AAC
Format/Info : Advanced Audio Codec
Format profile : LC
Codec ID : 40
Duration : 54mn 34s
Bit rate mode : Constant
Bit rate : 93.5 Kbps
Channel(s) : 2 channels
Channel positions : Front: L R
Sampling rate : 48.0 KHz
Compression mode : Lossy
Stream size : 36.5 MiB (5%)
Language : English

 

 

 

 

 
Complete name : WWE.205.Live.2018.07.10.720p.WEB.h264-HEEL.mp4
Format : MPEG-4
Format profile : Base Media
Codec ID : isom
File size : 1.72 GiB
Duration : 54mn 34s

Video
ID : 1
Duration : 54mn 34s
Bit rate mode : Constant
Bit rate : 4 372 Kbps
Width : 1 280 pixels
Height : 720 pixels
Display aspect ratio : 16:9
Frame rate mode : Variable
Frame rate : 29.970 fps
Minimum frame rate : 20.819 fps
Maximum frame rate : 29.970 fps
Color space : YUV
Chroma subsampling : 4:2:0
Bit depth : 8 bits
Scan type : Progressive
Bits/(Pixel*Frame) : 0.158
Stream size : 1.67 GiB (97%)

Audio
ID : 2
Format profile : LC
Codec ID : 40
Duration : 54mn 34s
Bit rate mode : Variable
Bit rate : 125 Kbps
Maximum bit rate : 134 Kbps
Channel(s) : 2 channels
Channel positions : Front: L R
Sampling rate : 48.0 KHz
Compression mode : Lossy
Stream size : 49.0 MiB (3%)
Language : English
 

 

 

 

 

 

 

 

WWE 205 Live 2018 07 10 WEB HEEL mp4 /720p Watch / Download

 

 

 

 

Watch online

 

 

Waiting finish converting video

 

 

Server 1

 

 

 

 

 

 

 

 

 

 

 

 

 

 

 

 

Server 2

 

 

 

 

 

 

 

 

 

 

 

 

Uploaded By Site DX-TV.com

 

 

 

open rar file to see this password

 

 

 

 

The password : DX-TV.com

 

 

 

 

400p+720p

 

 

 

 

 

Uploaded.net + rapidgator.net

 

 

 

 

 

http://shrt10.com/YnccMdG
 

http://shrt10.com/YZ4V2c
 

http://shrt10.com/oGgz

 
http://shrt10.com/ft5Lsa
 

 

 

 

 

 

 

WWE 205 Live 2018 07 10 WEB HEEL mp4 /720p Watch / Download

Support HVIPS

Please Disable Ad-Block To View This site. just help us to continue this work