WWE 205 Live 2018 07 03 WEB HEEL /720p Watch / Download

WWE 205 Live 2018 07 03 WEB HEEL /720p Watch / Download

 

 

 

 


 

 

 

dx-tv.com

 

 

 

 
Complete name : WWE.205.Live.2018.07.03.WEB.h264-HEEL.mp4
Format : MPEG-4
Format profile : Base Media
Codec ID : isom
File size : 645 MiB
Duration : 49mn 59s
Overall bit rate : 1 804 Kbps

Video
ID : 1
Format : AVC
Format/Info : Advanced Video Codec
Codec ID : avc1
Codec ID/Info : Advanced Video Coding
Duration : 49mn 59s
Bit rate mode : Constant
Bit rate : 1 704 Kbps
Width : 896 pixels
Height : 504 pixels
Display aspect ratio : 16:9
Frame rate mode : Variable
Frame rate : 29.970 fps
Minimum frame rate : 24.187 fps
Maximum frame rate : 29.970 fps
Color space : YUV
Chroma subsampling : 4:2:0
Bit depth : 8 bits
Scan type : Progressive
Bits/(Pixel*Frame) : 0.126
Stream size : 609 MiB (94%)

Audio
ID : 2
Format : AAC
Format/Info : Advanced Audio Codec
Format profile : LC
Codec ID : 40
Duration : 49mn 59s
Bit rate mode : Variable
Bit rate : 93.5 Kbps
Maximum bit rate : 99.4 Kbps
Channel(s) : 2 channels
Channel positions : Front: L R
Sampling rate : 48.0 KHz
Compression mode : Lossy
Stream size : 33.4 MiB (5%)
Language : English
 

 

 

 

 

 
Title: WWE.205.Live.2018.07.03.720p.WEB.h264-HEEL
Released: 2018.07.03
Source: WWE Network
Resolution: 1280 x 720 @ 29.970 FPS
Video: H.264 @ 4500 kbps
Audio: AAC @ 128 kbps
Size: 1.57 GB
Runtime: 49mn 58sec
 

 

 

 

 

 

 

WWE 205 Live 2018 07 03 WEB HEEL /720p Watch / Download

 

 

 

 

Watch online

 

 

Waiting finish converting video

 

 

Server 1

 

 

 

 

 

 

 

 

 

 

 

 

 

 

 

 

 

Server 2

 

 

 

 

 


 

 

 

 

 

 

Uploaded By Site DX-TV.com

 

 

 

open rar file to see this password

 

 

 

 

The password : DX-TV.com

 

 

 

 

 

Uploaded.net + rapidgator.net

 

 

 

 

 

http://shrt10.com/3aJLK
 

http://shrt10.com/vUIAzdZ
 

http://shrt10.com/i14HMu0

 
http://shrt10.com/lsmX
 

 

 

 

 

 

 

WWE 205 Live 2018 07 03 WEB HEEL /720p Watch / Download