WWE 205 Live 2018 05 15 HDTV Ebi Watch / Download

WWE 205 Live 2018 05 15 HDTV Ebi Watch / Download

 

 

 

 


 

 

dx-tv.com

 

 

 

 

 

 
Complete name : WWE.205.Live.2018.05.15.HDTV.x264-Ebi.mp4
Format : MPEG-4
Format profile : Base Media / Version 2
Codec ID : mp42
File size : 466 MiB
Duration : 44mn 12s
Overall bit rate : 1 472 Kbps
Encoded date : UTC 2018-05-16 02:00:22
Tagged date : UTC 2018-05-16 02:00:22

Video
ID : 1
Format : AVC
Format/Info : Advanced Video Codec
Codec ID : avc1
Codec ID/Info : Advanced Video Coding
Duration : 44mn 12s
Bit rate mode : Variable
Bit rate : 1 300 Kbps
Width : 712 pixels
Height : 400 pixels
Display aspect ratio : 16:9
Frame rate mode : Constant
Frame rate : 29.970 fps
Color space : YUV
Chroma subsampling : 4:2:0
Bit depth : 8 bits
Scan type : Progressive
Bits/(Pixel*Frame) : 0.152
Stream size : 413 MiB (89%)

Audio
ID : 2
Format : AAC
Format/Info : Advanced Audio Codec
Format profile : LC
Codec ID : 40
Duration : 44mn 12s
Bit rate mode : Variable
Bit rate : 160 Kbps
Channel(s) : 2 channels
Channel positions : Front: L R
Sampling rate : 48.0 KHz
Compression mode : Lossy
Stream size : 50.7 MiB (11%)
Title : Stereo
Encoded date : UTC 2018-05-16 02:00:22
Tagged date : UTC 2018-05-16 02:00:22

 

 

 

 

 

 

 

 

 

WWE 205 Live 2018 05 15 HDTV Ebi Watch / Download

 

 

 

 

Watch online

 

 

Waiting finish converting video

 

 

Server 1

 

 

 

 

 

 

 

 

 

 

 

 

 

 

 

Server 2

 

 

 

 

 

 

 

 

 

 

 

 

 

 

 

Uploaded By Site DX-TV.com

 

 

 

open rar file to see this password

 

 

 

 

The password is : DX-TV.com

 

 

 

 

 

 

Uploaded.net + rapidgator.net

 

 

 

 

 
http://shrt10.com/VE1DE

 
http://shrt10.com/g2z2tFRC
 

 

 

 

 

 

 

 

 

WWE 205 Live 2018 05 15 HDTV Ebi Watch / Download

Support HVIPS

Please Disable Ad-Block To View This site. just help us to continue this work