WWE 205 2018 07 17 1080p HDTV DX-TV Watch / Download

WWE 205 2018 07 17 1080p HDTV DX-TV Watch / Download

 

 

 

 


 

 

 

dx-tv.com

 

 

 

 

 

 

 

 
Complete name : WWE 205 2018 07 17 1080p HDTV x264 DX-TV.mp4
Format : MPEG-4
Format profile : Base Media / Version 2
Codec ID : mp42
File size : 1.33 GiB
Duration : 46mn 19s
Overall bit rate : 4 124 Kbps
Encoded date : UTC 2018-07-18 03:08:36
Tagged date : UTC 2018-07-18 03:08:36
Video
ID : 1
Format : AVC
Format/Info : Advanced Video Codec
Codec ID : avc1
Codec ID/Info : Advanced Video Coding
Duration : 46mn 19s
Bit rate mode : Variable
Bit rate : 3 989 Kbps
Width : 1 920 pixels
Height : 1 080 pixels
Display aspect ratio : 16:9
Frame rate mode : Constant
Frame rate : 30.000 fps
Color space : YUV
Chroma subsampling : 4:2:0
Bit depth : 8 bits
Scan type : Progressive
Bits/(Pixel*Frame) : 0.064
Stream size : 1.29 GiB (97%)
Language : English

Audio
ID : 2
Format : AAC
Format/Info : Advanced Audio Codec
Format profile : LC
Codec ID : 40
Duration : 46mn 19s
Bit rate mode : Constant
Bit rate : 128 Kbps
Channel(s) : 2 channels
Channel positions : Front: L R
Sampling rate : 44.1 KHz
Compression mode : Lossy
Stream size : 42.4 MiB (3%)
Language : English

 

 

 

 

 

WWE 205 2018 07 17 1080p HDTV DX-TV Watch / Download

 

 

 

 

Watch online

 

 

Waiting finish converting video

 

 

Server 1

 

 

 

 

 

 

 

 

 

 

 

 

 

 

Server 2

 

 

 

 

 


 

 

 

 

 

Uploaded By Site DX-TV.com

 

 

 

open rar file to see this password

 

 

 

 

The password : DX-TV.com

 

 

 

 

Uploaded.net + rapidgator.net

 

 

 

 

 

 

http://shrt10.com/SPnX

 

 

 

 

 
http://shrt10.com/xmxnbF
 

 

 

 

 

 

 

 

 

WWE 205 2018 07 17 1080p HDTV DX-TV Watch / Download