Watch GCW Line in the Sand 2017 11 11 mp4

Watch GCW Line in the Sand 2017 11 11 mp4

 

 

 

 

 

 

wwe

 

 

 

 

 

 

Complete name : GCW.Line.in.the.Sand.11.11.2017.WebRip.mp4
Format : MPEG-4
Format profile : Base Media / Version 2
Codec ID : mp42
File size : 2.00 GiB
Duration : 2h 14mn
Overall bit rate : 2 137 Kbps
Encoded date : UTC 2017-11-27 14:04:43
Tagged date : UTC 2017-11-27 14:05:49

Video
ID : 1
Format : AVC
Format/Info : Advanced Video Codec
Codec ID : avc1
Codec ID/Info : Advanced Video Coding
Duration : 2h 14mn
Bit rate mode : Variable
Bit rate : 2 006 Kbps
Width : 854 pixels
Height : 480 pixels
Display aspect ratio : 16:9
Frame rate mode : Constant
Frame rate : 23.976 fps
Color space : YUV
Chroma subsampling : 4:2:0
Bit depth : 8 bits
Scan type : Progressive
Bits/(Pixel*Frame) : 0.204
Stream size : 1.88 GiB (94%)
Language : English

Audio
ID : 2
Format : AAC
Format/Info : Advanced Audio Codec
Format profile : LC
Codec ID : 40
Duration : 2h 14mn
Bit rate mode : Constant
Bit rate : 128 Kbps
Channel(s) : 2 channels
Channel positions : Front: L R
Sampling rate : 48.0 KHz
Compression mode : Lossy
Stream size : 123 MiB (6%)
Language : English
Encoded date : UTC 2017-11-27 14:04:37
Tagged date : UTC 2017-11-27 14:05:49

 

 

 

 

 
Game Changer Wrestling
“Line in the Sand”
November 11th, 2017

GCW Tag Team Title Match
The Rejects (John Wayne Murdoch & Reed Bentley) (c) vs. Jimmy Lloyd & Markus Crane

Singles Match
Danny Demanto vs. Evander James

Singles Match
Eli Everfly vs. Unbreakable Andy

DTU World Extreme Title Match
SHLAK (c) vs. Eddie Kingston

Singles Match
Ken Broadway vs. Mance Warner

GCW Extreme Title Match
Tony Deppen (c) vs. Kyle The Beast

GCW Heavyweight Title Match
Matt Tremont (c) vs. Homicide

Singles Match
Darby Allin vs. Nick Gage
 

 

 

 

 

 

 

 

 

 

 

Watch GCW Line in the Sand 2017 11 11 mp4

 

 

 

 

Watch online

 

 

Waiting finish converting video

 

 

Server 1

 

 

 

 

 

 

 

 

 

 

 

 

 

 

 

 

 

 

 

 

 

 

Srver 2

 

 

 

 

 

 

 

 

 

 

 

 

 

 


 

 

 

 

 

 

 

Uploaded By Site DX-TV.com

 

 

 

open rar file to see this password

 

 

 

 

The password is : DX-TV.com

 

 

 

 

 

 

 

 

 

rapidgator.net

 

 

 

 

 

 

 

http://shrt10.com/gbTJ

 

 

 

 

 

 

 

 

 

Watch GCW Line in the Sand 2017 11 11 mp4

Support HVIPS

Please Disable Ad-Block To View This site. just help us to continue this work