Watch ZERO1 Happy New Year 2018 01 01 Tokyo mp4

Watch ZERO1 Happy New Year 2018 01 01 Tokyo mp4

 

 

 

 

 

 

wwe

 

 

 

 

 

 

 

 

Complete name : 2018.01.01.ZERO1.Happy.New.Year.Tokyo.Korakuen.Hall.(Samurai.TV).mp4
Format : MPEG-4
Format profile : Base Media / Version 2
Codec ID : mp42
File size : 2.56 GiB
Duration : 1h 54mn
Overall bit rate : 3 185 Kbps

Video
ID : 2
Format : AVC
Format/Info : Advanced Video Codec 
Codec ID : avc1
Codec ID/Info : Advanced Video Coding
Duration : 1h 54mn
Bit rate mode : Variable
Bit rate : 2 990 Kbps
Width : 1 280 pixels
Height : 720 pixels
Display aspect ratio : 16:9
Frame rate mode : Constant
Frame rate : 30.000 fps
Color space : YUV
Chroma subsampling : 4:2:0
Bit depth : 8 bits
Scan type : Progressive
Bits/(Pixel*Frame) : 0.108
Stream size : 2.40 GiB (94%)
Language : Japan

Audio
ID : 1
Format : AAC
Format/Info : Advanced Audio Codec
Format profile : LC
Codec ID : 40
Duration : 1h 54mn
Bit rate mode : Constant
Bit rate : 192 Kbps
Channel(s) : 2 channels
Channel positions : Front: L R
Sampling rate : 48.0 KHz
Compression mode : Lossy
Stream size : 157 MiB (6%)
Language : Japan

 

 

 

 

 

 

 

 

 

 

 

 

 

 

 

 

Watch ZERO1 Happy New Year 2018 01 01 Tokyo mp4

 

 

 

 

Watch online

 

 

Waiting finish converting video

 

 

Server 1

 

 

 

 

 

 

 

 

 

 

 

 

 

 

 

 

 

 

 

 

 

 

 

 

 

 

Server 2

 

 

 

 

 

 

 

 

 

 

 

 

 


 

 

 

 

 

 

 

Uploaded By Site DX-TV.com

 

 

 

open rar file to see this password

 

 

 

 

The password is : DX-TV.com

 

 

 

 

 

 

Uploaded.net + rapidgator.net

 

 

 

 

 

 

 

 

http://shrt10.com/gLIZRu

 

 

 

http://shrt10.com/j1ebSjH

 

 

 

 

 

 

 

 

 

Watch ZERO1 Happy New Year 2018 01 01 Tokyo mp4

Support HVIPS

Please Disable Ad-Block To View This site. just help us to continue this work