Watch wXw 2018 02 25 Road To 16 Carat Gold 2018 WEB NCMP /720p

Watch wXw 2018 02 25 Road To 16 Carat Gold 2018 WEB NCMP /720p

 

 

s

 

 

 

wwe

 

 

 

 

 

 

Complete name : wXw.2018.02.25.Road.To.16.Carat.Gold.2018.WEB.h264-NCMP.mp4
Format : MPEG-4
Format profile : Base Media
Codec ID : isom
File size : 1.58 GiB
Duration : 2h 22mn
Overall bit rate : 1 588 Kbps
Writing application : Lavf55.12.100

Video
ID : 2
Format : AVC
Format/Info : Advanced Video Codec
Codec ID : avc1
Codec ID/Info : Advanced Video Coding
Duration : 2h 22mn
Bit rate mode : Variable
Bit rate : 1 495 Kbps
Width : 854 pixels
Height : 480 pixels
Display aspect ratio : 16:9
Frame rate mode : Constant
Frame rate : 29.970 fps
Color space : YUV
Chroma subsampling : 4:2:0
Bit depth : 8 bits
Scan type : Progressive
Bits/(Pixel*Frame) : 0.122
Stream size : 1.49 GiB (94%)

Audio
ID : 1
Format : AAC
Format/Info : Advanced Audio Codec
Format profile : LC
Codec ID : 40
Duration : 2h 22mn
Bit rate mode : Variable
Bit rate : 85.9 Kbps
Maximum bit rate : 94.5 Kbps
Channel(s) : 2 channels
Channel positions : Front: L R
Sampling rate : 48.0 KHz
Compression mode : Lossy
Stream size : 87.6 MiB (5%)

 

 

 

 

 

 

 

 
Language: English
Video Duration: 02:22:36

Name of the event: wXw Road To 16 Carat Gold 2018
Date: 25.02.2018
Promotion: Westside Xtreme Wrestling
Type: Event
Location: Bielefeld, Nordrhein-Westfalen, Deutschland
Arena: Forum
Attendance: 330

Road To 16 Carat Gold 2018 Semi Final Three Way Match
Jay Skillet vs. Julian Pace vs. Mike Bailey

Road To 16 Carat Gold 2018 Semi Final Four Way Match
Francis Kaspin vs. Marius Al-Ani vs. Michael Dante vs. Veit Müller

Singles Match
Absolute Andy vs. Tyler Colton

Tag Team Match
Dirty Dragan & Emil Sitoci vs. Alexander James & Jurn Simmons

Non Title Match
Bobby Gunns vs. John Klinger

wXw Women’s Title #1 Contendership Three Way Match
Killer Kelly vs. Melanie Gray vs. Veda Scott

Non Title Tag Team Match
Ringkampf (Timothy Thatcher & WALTER) vs. RISE (Ivan Kiev & Lucky Kid)

Road To 16 Carat Gold 2018 Final Match
 

 

 

 

 

 

 

 

 

 

Watch wXw 2018 02 25 Road To 16 Carat Gold 2018 WEB NCMP /720p

 

 

 

 

Watch online

 

 

Waiting finish converting video

 

 

Server 1

 

 

 

 

 

 

 

 

 

 

 

 

 

 

 

 

 

Server 2

 

 

 

 

 

 

 


 

 

 

 

 

 

 

Uploaded By Site DX-TV.com

 

 

 

open rar file to see this password

 

 

 

 

The password is : DX-TV.com

 

 

 

 

400p+720p

 

 

 

 

 

Uploaded.net + rapidgator.net

 

 

 

 

 

 

http://shrt10.com/MoLoutU

 

 

http://shrt10.com/oHF0Ayc

 

 

http://shrt10.com/bUn1Ot

 

 

http://shrt10.com/mTFA9R5

 

 

 

 

 

 

 

Watch wXw 2018 02 25 Road To 16 Carat Gold 2018 WEB NCMP /720p

Support HVIPS

Please Disable Ad-Block To View This site. just help us to continue this work