Watch wXw 2018 01 20 ENG Back To The Roots XVII WEB NCMP /720p

Watch wXw 2018 01 20 ENG Back To The Roots XVII WEB NCMP /720p

 

 

 

 

 

 

wwe

 

 

 

 

 

 

 

 
WXW: Back To The Roots XVII
Video Duration: 02:15:18

Hardcore Match
Martina vs. Melanie Gray

Singles Match
Dirty Dragan vs. Jurn Simmons

Singles Match
Chris Colen vs. Da Mack

Non Title Match
Absolute Andy vs. Bobby Gunns

wXw Women’s Title Match
Killer Kelly (c) vs. Toni Storm

Käfigschlacht Eight Man Tag Team Match
Monster Consulting (Avalanche & Julian Nero) & Ringkampf (Timothy Thatcher & WALTER) vs. RISE (Ivan Kiev, John Klinger, Lucky Kid & Tarkan Aslan)
 

 

 

 

 
Complete name : wXw.2018.01.20.ENG.Back.To.The.Roots.XVII.720p.WEB.h264-NCMP.mp4
Format : MPEG-4
Format profile : Base Media
Codec ID : isom
File size : 2.54 GiB
Duration : 2h 15mn
Overall bit rate : 2 685 Kbps
Writing application : Lavf55.12.100

Video
ID : 2
Format : AVC
Format/Info : Advanced Video Codec
Codec ID : avc1
Codec ID/Info : Advanced Video Coding
Duration : 2h 15mn
Bit rate mode : Variable
Bit rate : 2 590 Kbps
Width : 1 280 pixels
Height : 720 pixels
Display aspect ratio : 16:9
Frame rate mode : Constant
Frame rate : 29.970 fps
Color space : YUV
Chroma subsampling : 4:2:0
Bit depth : 8 bits
Scan type : Progressive
Bits/(Pixel*Frame) : 0.094
Stream size : 2.45 GiB (96%)

Audio
ID : 1
Format : AAC
Format/Info : Advanced Audio Codec
Format profile : LC
Codec ID : 40
Duration : 2h 15mn
Bit rate mode : Variable
Bit rate : 88.6 Kbps
Maximum bit rate : 95.3 Kbps
Channel(s) : 2 channels
Channel positions : Front: L R
Sampling rate : 48.0 KHz
Compression mode : Lossy
Stream size : 85.7 MiB (3%)

 

 

 

 

 

 

 

 

 

 

 

 

Watch wXw 2018 01 20 ENG Back To The Roots XVII WEB NCMP /720p

 

 

 

 

Watch online

 

 

Waiting finish converting video

 

 

Server 1

 

 

 

 

 

 

 

 

 

 

 

 

 

 

 

 

Server 2

 

 

 

 

 

 

 

 

 

 

 

 

 

 

 

Uploaded By Site DX-TV.com

 

 

 

open rar file to see this password

 

 

 

 

The password is : DX-TV.com

 

 

 

 

400p+720p

 

 

 

 

 

Uploaded.net + rapidgator.net

 

 

 

 

 

 

 

http://shrt10.com/BWP4Hp2j

 

 

http://shrt10.com/YDoN

 

 

http://shrt10.com/jjXDZV

 

 

http://shrt10.com/4Qx7Zz

 

 

 

 

 

Watch wXw 2018 01 20 ENG Back To The Roots XVII WEB NCMP /720p

Support HVIPS

Please Disable Ad-Block To View This site. just help us to continue this work