Watch wXw 2017 12 23 ENG 17th Anniversary WEB NCMP /720p

Watch wXw 2017 12 23 ENG 17th Anniversary WEB NCMP /720p

 

 

 

 

 

 

wwe

 

 

 

 

 

 

 

Complete name : wXw.2017.12.23.ENG.17th.Anniversary.WEB.h264-NCMP.mp4
Format : MPEG-4
Format profile : Base Media
Codec ID : isom
File size : 1.90 GiB
Duration : 2h 51mn
Overall bit rate : 1 588 Kbps

Video
ID : 1
Format : AVC
Format/Info : Advanced Video Codec
Codec ID : avc1
Codec ID/Info : Advanced Video Coding
Duration : 2h 51mn
Bit rate mode : Variable
Bit rate : 1 494 Kbps
Width : 854 pixels
Height : 480 pixels
Display aspect ratio : 16:9
Frame rate mode : Constant
Frame rate : 29.970 fps
Color space : YUV
Chroma subsampling : 4:2:0
Bit depth : 8 bits
Scan type : Progressive
Bits/(Pixel*Frame) : 0.122
Stream size : 1.79 GiB (94%)

Audio
ID : 2
Format : AAC
Format/Info : Advanced Audio Codec
Format profile : LTP
Codec ID : 40
Duration : 2h 51mn
Bit rate mode : Constant
Bit rate : 86.3 Kbps
Channel(s) : 3 channels
Channel positions : Front: L C R
Sampling rate : 64.0 KHz
Compression mode : Lossy
Stream size : 106 MiB (5%)

 

 

 

 

 

 

 
Complete name : wXw.2017.12.23.ENG.17th.Anniversary.720p.WEB.h264-NCMP.mp4
Format : MPEG-4
Format profile : Base Media
Codec ID : isom
File size : 3.21 GiB
Duration : 2h 51mn
Overall bit rate : 2 682 Kbps

Video
ID : 1
Format : AVC
Format/Info : Advanced Video Codec
Codec ID : avc1
Codec ID/Info : Advanced Video Coding
Duration : 2h 51mn
Bit rate mode : Variable
Bit rate : 2 589 Kbps
Width : 1 280 pixels
Height : 720 pixels
Display aspect ratio : 16:9
Frame rate mode : Constant
Frame rate : 29.970 fps
Color space : YUV
Chroma subsampling : 4:2:0
Bit depth : 8 bits
Scan type : Progressive
Bits/(Pixel*Frame) : 0.094
Stream size : 3.10 GiB (97%)

Audio
ID : 2
Format : AAC
Format/Info : Advanced Audio Codec
Format profile : LTP
Codec ID : 40
Duration : 2h 51mn
Bit rate mode : Constant
Bit rate : 86.3 Kbps
Channel(s) : 3 channels
Channel positions : Front: L C R
Sampling rate : 64.0 KHz
Compression mode : Lossy

 

 

 

 

 

 

 

 

 

 

Watch wXw 2017 12 23 ENG 17th Anniversary WEB NCMP /720p

 

 

 

 

Watch online

 

 

Waiting finish converting video

 

 

Server 1

 

 

 

 

 

 

 

 

 

 

 

 

 

 

 

 

 

 

 

 

 

 

 

 

 

 

Server 2

 

 

 

 

 

 

 

 

 

 


 

 

 

 

 

 

 

 

 

 

 

Uploaded By Site DX-TV.com

 

 

 

open rar file to see this password

 

 

 

 

The password is : DX-TV.com

 

 

 

 

400p+720p

 

 

 

 

 

Uploaded.net + rapidgator.net

 

 

 

 

 

 

 

 

 

http://shrt10.com/R5MyCG

 

 

http://shrt10.com/OU470

 

 

http://shrt10.com/DkC9

 

 

http://shrt10.com/xBuGhmpb

 

 

 

 

 

 

 

 

 

 

 

 

Watch wXw 2017 12 23 ENG 17th Anniversary WEB NCMP /720p

Support HVIPS

Please Disable Ad-Block To View This site. just help us to continue this work