Watch wXw 2017 12 02 ENG Shotgun 333 720p mp4

Watch wXw 2017 12 02 ENG Shotgun 333 720p mp4

 

 

 

 

 

 

wwe

 

 

 

 

 

Complete name : wXw.2017.12.05.ENG.Shotgun.333.720p.WEB.h264-NCMP.mp4
Format : MPEG-4
Format profile : Base Media
Codec ID : isom
File size : 970 MiB
Duration : 50mn 47s
Overall bit rate : 2 670 Kbps
Encoded date : UTC 2017-12-06 17:58:49
Tagged date : UTC 2017-12-06 17:58:49
Writing application : Lavf56.36.100

Video
ID : 2
Format : AVC
Format/Info : Advanced Video Codec
Codec ID : avc1
Codec ID/Info : Advanced Video Coding
Duration : 50mn 47s
Bit rate mode : Variable
Bit rate : 2 586 Kbps
Width : 1 280 pixels
Height : 720 pixels
Display aspect ratio : 16:9
Frame rate mode : Constant
Frame rate : 29.970 fps
Color space : YUV
Chroma subsampling : 4:2:0
Bit depth : 8 bits
Scan type : Progressive
Bits/(Pixel*Frame) : 0.094
Stream size : 939 MiB (97%)
Writing library : Zencoder Video Encoding System
Encoded date : UTC 2017-12-06 17:58:49
Tagged date : UTC 2017-12-06 17:58:49

Audio
ID : 1
Format : AAC
Format/Info : Advanced Audio Codec
Format profile : LC
Codec ID : 40
Duration : 50mn 47s
Bit rate mode : Variable
Bit rate : 76.4 Kbps
Maximum bit rate : 106 Kbps
Channel(s) : 2 channels
Channel positions : Front: L R
Sampling rate : 48.0 KHz
Compression mode : Lossy
Stream size : 27.8 MiB (3%)
Encoded date : UTC 2017-12-06 17:58:49
Tagged date : UTC 2017-12-06 17:58:49

 

 

 

 

 

 

 

 

 

 

 

 

 

 

 

 

 

 

 

Watch wXw 2017 12 02 ENG Shotgun 333 720p mp4

 

 

 

 

Watch online

 

 

Waiting finish converting video

 

 

Server 1

 

 

 

 

 

 

 

 

 

 

 

 

 

 

 

 

 

 

 

 

Server 2

 

 

 

 

 

 

 

 

 

 

 

 


 

 

 

Srver 3

 

 

 

 

 

 

 

 

 

 

 

 


 

 

 

 

Uploaded By Site DX-TV.com

 

 

 

open rar file to see this password

 

 

 

 

The password is : DX-TV.com

 

 

 

 

720p

 

 

 

rapidgator.net

 

 

 

 

 

 

 

 

http://shrt10.com/qJOBU

 

 

 

 

 

 

Watch wXw 2017 12 02 ENG Shotgun 333 720p mp4

Support HVIPS

Please Disable Ad-Block To View This site. just help us to continue this work