Watch wXw 2017 10 06 World Tag Team League Day 1 mp4

Watch wXw 2017 10 06 World Tag Team League Day 1 mp4

 

 

 

 

 

 

wwe

 

 

 

 

 

 

 

 

 
Complete name : wXw.2017.10.06.World.Tag.Team.League.Day.1.WEB.h264-NCMP.mp4
Format : MPEG-4
Format profile : Base Media
Codec ID : isom
File size : 1.30 GiB
Duration : 1h 57mn
Overall bit rate : 1 585 Kbps
Encoded date : UTC 2017-10-12 01:37:33
Tagged date : UTC 2017-10-12 01:37:33
Writing application : Lavf56.36.100

Video
ID : 2
Format : AVC
Format settings, ReFrames : 3 frames
Codec ID : avc1
Codec ID/Info : Advanced Video Coding
Duration : 1h 57mn
Bit rate mode : Variable
Bit rate : 1 493 Kbps
Width : 854 pixels
Height : 480 pixels
Display aspect ratio : 16:9
Frame rate mode : Constant
Frame rate : 29.970 fps
Color space : YUV
Chroma subsampling : 4:2:0
Bit depth : 8 bits
Bits/(Pixel*Frame) : 0.122
Stream size : 1.22 GiB (94%)

Audio
ID : 1
Format : AAC
Codec ID : 40
Duration : 1h 57mn
Bit rate mode : Constant
Bit rate : 84.4 Kbps
Channel(s) : 2 channels
Sampling rate : 48.0 KHz
Compression mode : Lossy
Stream size : 70.9 MiB (5%)

 

 

 

 

 

 

Complete name : wXw.2017.10.06.World.Tag.Team.League.Day.1.720p.WEB.h264-NCMP.mp4
Format : MPEG-4
Format profile : Base Media
Codec ID : isom
File size : 2.20 GiB
Duration : 1h 57mn
Overall bit rate : 2 680 Kbps
Encoded date : UTC 2017-10-12 01:35:36
Tagged date : UTC 2017-10-12 01:35:36
Writing application : Lavf56.36.100

Video
ID : 2
Format : AVC
Format settings, ReFrames : 3 frames
Codec ID : avc1
Codec ID/Info : Advanced Video Coding
Duration : 1h 57mn
Bit rate mode : Variable
Bit rate : 2 588 Kbps
Width : 1 280 pixels
Height : 720 pixels
Display aspect ratio : 16:9
Frame rate mode : Constant
Frame rate : 29.970 fps
Color space : YUV
Chroma subsampling : 4:2:0
Bit depth : 8 bits
Scan type : Progressive
Bits/(Pixel*Frame) : 0.094
Stream size : 2.12 GiB (97%)

ID : 1
Format : AAC

Codec ID : 40
Duration : 1h 57mn
Bit rate mode : Constant
Bit rate : 84.4 Kbps
Channel(s) : 2 channels
Channel positions : Front: L R
Sampling rate : 48.0 KHz
Compression mode : Lossy
Stream size : 70.9 MiB (3%)

 

 

 

 

 

 

 

 

Watch wXw 2017 10 06 World Tag Team League Day 1 mp4

 

 

 

 

Watch online

 

 

Waiting finish converting video

 

 

Server 1

 

 

 

 

 

 

 

 

 

 

 

 

 

 

 

 

 

 

 

 

 

 

 

 

 

 

 

Server 2

 

 

 

 

 

 

 

 

 

 

 

 


 

 

 

 

 

 

 

Uploaded By Site DX-TV.com

 

 

 

open rar file to see this password

 

 

 

 

The password is : DX-TV.com

 

 

 

 

400p+720p

 

 

 

 

 

 

rapidgator.net

 

 

 

 

 

http://shrt10.com/skxlMLA

 

 

 

 

 

 

http://shrt10.com/iOr5z7

 

 

 

 

 

Watch wXw 2017 10 06 World Tag Team League Day 1 mp4

Support HVIPS

Please Disable Ad-Block To View This site. just help us to continue this work