Watch wXw 16 Carat Gold 2018 Day 1 WEB DL /720p

Watch wXw 16 Carat Gold 2018 Day 1 WEB DL /720p

 

 

 

s

 

 

 

wwe

 

 

 

 

 

 

Complete name : wXw.16.Carat.Gold.2018.Day.1.WEB.DL.mp4
Format : MPEG-4
Format profile : Base Media / Version 2
Codec ID : mp42
File size : 1.58 GiB
Duration : 2h 9mn
Overall bit rate : 1 755 Kbps
Encoded date : UTC 2018-03-12 16:09:09
Tagged date : UTC 2018-03-12 16:09:09

Video
ID : 1
Format : AVC
Format/Info : Advanced Video Codec
Codec ID : avc1
Codec ID/Info : Advanced Video Coding
Duration : 2h 9mn
Bit rate mode : Variable
Bit rate : 1 500 Kbps
Width : 960 pixels
Height : 540 pixels
Display aspect ratio : 16:9
Frame rate mode : Constant
Frame rate : 25.000 fps
Color space : YUV
Chroma subsampling : 4:2:0
Bit depth : 8 bits
Scan type : Progressive
Bits/(Pixel*Frame) : 0.116
Stream size : 1.35 GiB (85%)
Audio
ID : 2
Format : AAC
Format/Info : Advanced Audio Codec
Format profile : LC
Codec ID : 40
Duration : 2h 9mn
Bit rate mode : Variable
Bit rate : 256 Kbps
Channel(s) : 2 channels
Channel positions : Front: L R
Sampling rate : 48.0 KHz
Compression mode : Lossy
Stream size : 237 MiB (15%)
Encoded date : UTC 2018-03-12 16:09:09
Tagged date : UTC 2018-03-12 16:09:09

 

 

 

 

 

 
First Round Matches:
Absolute Andy vs. Marius Al-Ani
Avalanche vs. Keith Lee
Mark Haskins vs. Travis Banks
David Starr vs. Winner of the Alternate Four Way Dance
Lucky Kid vs. Matt Sydal
Jonah Rock vs. Timothy Thatcher
Alexander James vs. Chris Brookes
Da Mack vs. Matt Riddle

Alternate Four Way Dance:
Emil Sitoci vs. Ivan Kiev vs. Julian Nero vs. Julian Pace

John “Bad Bones” Klinger & Bobby Gunns vs. WALTER & Speedball Mike Bailey

 

 

 

 

 

 

 

 

 

 

 

 

Watch wXw 16 Carat Gold 2018 Day 1 WEB DL /720p

 

 

 

 

Watch online

 

 

Waiting finish converting video

 

 

Server 1

 

 

 

 

 

 

 

 

 

 

 

 

 

 

 

 

 

 

Server 2

 

 

 

 

 

 


 

 

 

 

 

 

Uploaded By Site DX-TV.com

 

 

 

open rar file to see this password

 

 

 

 

The password is : DX-TV.com

 

 

 

 

400p+720p

 

 

 

 

 

Uploaded.net + rapidgator.net

 

 

 

 

 

 

http://shrt10.com/OfOqmhdM

 

 

http://shrt10.com/UyYiD

 

 

http://shrt10.com/okx0wK

 

 

http://shrt10.com/YSQAJ2

 

 

 

 

 

 

Watch wXw 16 Carat Gold 2018 Day 1 WEB DL /720p

Support HVIPS

Please Disable Ad-Block To View This site. just help us to continue this work