Watch WWE Vintage 2018 01 07 HDTV x264 mp4

Watch WWE Vintage 2018 01 07 HDTV x264 mp4

 

 

 

 

 

 

wwe

 

 

 

 

 

 

 

Complete name : 2018-01-07 WWE Vintage.mp4
Format : MPEG-4
Format profile : Base Media
Codec ID : isom
File size : 1.20 GiB
Duration : 42mn 22s
Overall bit rate : 4 063 Kbps
Writing application : Lavf57.56.101

Video
ID : 1
Format : AVC
Format/Info : Advanced Video Codec
Codec ID : avc1
Codec ID/Info : Advanced Video Coding
Duration : 42mn 22s
Bit rate mode : Variable
Bit rate : 3 768 Kbps
Width : 1 280 pixels
Height : 720 pixels
Display aspect ratio : 16:9
Frame rate mode : Constant
Frame rate : 25.000 fps
Color space : YUV
Chroma subsampling : 4:2:0
Bit depth : 8 bits
Scan type : Progressive
Bits/(Pixel*Frame) : 0.164
Stream size : 1.12 GiB (93%)

Audio
ID : 2
Format : AAC
Format/Info : Advanced Audio Codec
Format profile : LC
Codec ID : 40
Duration : 42mn 22s
Bit rate mode : Variable
Bit rate : 288 Kbps
Maximum bit rate : 384 Kbps
Channel(s) : 2 channels
Channel positions : Front: L R
Sampling rate : 48.0 KHz
Compression mode : Lossy
Stream size : 87.7 MiB (7%)

 

 

 

 

 

 

 

 

 

 

 

 

 

 

 

 

 

Watch WWE Vintage 2018 01 07 HDTV x264 mp4

 

 

 

 

Watch online

 

 

Waiting finish converting video

 

 

Server 1

 

 

 

 

 

 

 

 

 

 

 

 

 

 

 

 

 

 

 

 

 

 

 

 

 

 

Server 2

 

 

 

 

 

 

 

 

 

 

 


 

 

 

 

 

 

 

 

 

 

Uploaded By Site DX-TV.com

 

 

 

open rar file to see this password

 

 

 

 

The password is : DX-TV.com

 

 

 

 

rapidgator.net

 

 

 

 

 

 

 

 

 

 

http://shrt10.com/7snoPWRP

 

 

 

 

 

 

 

 

 

 

 

 

Watch WWE Vintage 2018 01 07 HDTV x264 mp4

Support HVIPS

Please Disable Ad-Block To View This site. just help us to continue this work