Watch WWE Tribute To The Troops 2017 12 14 HDTV NWCHD /720p

Watch WWE Tribute To The Troops 2017 12 14 HDTV NWCHD /720p

 

 

 

 

 

 

wwe

 

 

 

 

 

 

 

 

 
Complete name : WWE.Tribute.To.The.Troops.2017.12.14.720p.HDTV.x264-NWCHD.mp4
Format : MPEG-4
Format profile : Base Media
Codec ID : isom
File size : 2.71 GiB
Duration : 1h 23mn
Overall bit rate : 4 636 Kbps

Video
ID : 1
Duration : 1h 23mn
Bit rate mode : Variable
Bit rate : 4 500 Kbps
Width : 1 280 pixels
Height : 720 pixels
Display aspect ratio : 16:9
Frame rate mode : Variable
Frame rate : 29.970 fps
Minimum frame rate : 26.502 fps
Maximum frame rate : 29.970 fps
Color space : YUV
Chroma subsampling : 4:2:0
Bit depth : 8 bits
Scan type : Progressive
Bits/(Pixel*Frame) : 0.163
Stream size : 2.59 GiB (96%)

Audio
ID : 2
Codec ID : 40
Duration : 1h 23mn
Bit rate mode : Variable
Bit rate : 192 Kbps
Maximum bit rate : 200 Kbps
Channel(s) : 2 channels
Channel positions : Front: L R
Sampling rate : 48.0 KHz
Compression mode : Lossy
Stream size : 115 MiB (4%)

 

 

 

 

 

 

 

 
Complete name : WWE.Tribute.To.The.Troops.2017.12.14.HDTV.x264-NWCHD.mp4
Format : MPEG-4
Format profile : Base Media
Codec ID : isom
File size : 942 MiB
Duration : 1h 23mn
Overall bit rate : 1 573 Kbps

Video
ID : 1
Duration : 1h 23mn
Bit rate mode : Variable
Bit rate : 1 400 Kbps
Width : 704 pixels
Height : 400 pixels
Display aspect ratio : 16:9
Frame rate mode : Variable
Frame rate : 29.970 fps
Minimum frame rate : 26.502 fps
Maximum frame rate : 29.970 fps
Color space : YUV
Chroma subsampling : 4:2:0
Bit depth : 8 bits
Scan type : Progressive
Bits/(Pixel*Frame) : 0.166
Stream size : 822 MiB (87%)

Audio
ID : 2
Codec ID : 40
Duration : 1h 23mn
Bit rate mode : Variable
Bit rate : 192 Kbps
Maximum bit rate : 200 Kbps
Channel(s) : 2 channels
Channel positions : Front: L R
Sampling rate : 48.0 KHz
Compression mode : Lossy
Stream size : 115 MiB (12%)

 

 

 

 

 

 

 

Watch WWE Tribute To The Troops 2017 12 14 HDTV NWCHD /720p

 

 

 

 

Watch online

 

 

Waiting finish converting video

 

 

Server 1

 

 

 

 

 

 

 

 

 

 

 

 

 

 

 

 

 

 

 

 

Server 2

 

 

 

 

 

 

 

 

 

 

 


 

 

 

 

 

 

 

 

 

Uploaded By Site DX-TV.com

 

 

 

open rar file to see this password

 

 

 

 

The password is : DX-TV.com

 

 

 

 

400p+720p

 

 

 

 

 

rapidgator.net

 

 

 

 

 

 

 

 

http://shrt10.com/ofWsff

 

 

 

http://shrt10.com/wXJUzcrL

 

 

 

 

 

 

Watch WWE Tribute To The Troops 2017 12 14 HDTV NWCHD /720p

Support HVIPS

Please Disable Ad-Block To View This site. just help us to continue this work